Search

True Grit 2011 x264 720p Esub BluRay Dual Audio English Hindi GOPISAHI


Format                         : Matroska
Format version                 : Version 4 / Version 2
File size                      : 677 MiB
Duration                       : 1 h 45 min
Overall bit rate               : 894 kb/s
Movie name                     : True Grit 2011 GOPISAHI

Video
Format                         : AVC
Format/Info                    : Advanced Video Codec
Codec ID                       : V_MPEG4/ISO/AVC
Duration                       : 1 h 45 min
Bit rate                       : 699 kb/s
Width                          : 1 280 pixels
Height                         : 544 pixels
Display aspect ratio           : 2.35:1
Frame rate mode                : Constant
Frame rate                     : 25.000 FPS
Color space                    : YUV
Chroma subsampling             : 4:2:0
Bit depth                      : 8 bits
Scan type                      : Progressive
Bits/(Pixel*Frame)             : 0.040
Stream size                    : 529 MiB (78%)
Title                          : GOPISAHI
Writing library                : x264 core 155 r2901 7d0ff22

Audio #1
Format                         : AAC
Duration                       : 1 h 45 min
Bit rate                       : 96.0 kb/s
Channel(s)                     : 2 channels
Channel positions              : Front: L R
Sampling rate                  : 48.0 kHz
Frame rate                     : 46.875 FPS (1024 SPF)
Compression mode               : Lossy
Delay relative to video        : 3 s 221 ms
Stream size                    : 72.7 MiB (11%)
Title                          : GOPISAHI
Language                       : Hindi

Audio #2
Format                         : AAC
Duration                       : 1 h 45 min
Bit rate                       : 96.0 kb/s
Channel(s)                     : 2 channels
Channel positions              : Front: L R
Sampling rate                  : 48.0 kHz
Frame rate                     : 46.875 FPS (1024 SPF)
Compression mode               : Lossy
Stream size                    : 72.6 MiB (11%)
Title                          : GOPISAHI
Language                       : English






https://linksclub.biz/drive/download.php?id=5025fa4ff23d0d6fdf48

https://linkstaker.bid/drive/download.php?id=002a10ad9928294a5b66

https://my.pcloud.com/publink/show?code=XZylM17ZJkhzB99kUvLINNalCt7nWSCz4gs7

http://www.mediafire.com/file/hbglbdzrsc8i464/Tr_Gr_2011HI.rar

https://www.oboom.com/OCUE31RY

https://megaup.net/me2J/True_Grit_2011_x264_720p_Esub_BluRay_Dual_Audio_English_Hindi_GOPISAHI.mkv

https://openload.co/f/gLzVSWm-mj8/True%2520Grit%25202011%2520x264%2520720p%2520Esub%2520BluRay%2520Dual%2520Audio%2520English%2520Hindi%2520GOPISAHI.mkv.mp4

http://www.filefactory.com/file/6ih7j5cser4j/

https://uploadfiles.pw/f624d0eccbc6d627

https://archive.org/download/TrueGrit2011X264720pEsubBluRayDualAudioEnglishHindiGOPISAHI/True%20Grit%202011%20x264%20720p%20Esub%20BluRay%20Dual%20Audio%20English%20Hindi%20GOPISAHI.mkv

286 MB HINDI



Post a Comment

0 Comments