Search

Udta Punjab 2016 BLURAY 1080p GOPISAHI =30 GB

Unique ID                      : 187483795395944942720630985120590808198 (0x8D0C10C8CE183F5AF855523E255F4486)
Complete name                  : C:\Users\gopisahi56\Desktop\Udta Punjab 2016 1080p BluRay AVC HINDI GOPISAHI.mkv
Format                         : Matroska
Format version                 : Version 4
File size                      : 30.1 GiB
Duration                       : 2 h 28 min
Overall bit rate mode          : Variable
Overall bit rate               : 29.0 Mb/s
Movie name                     : Udta Punjab 2016 GOPISAHI
Encoded date                   : UTC 2018-09-20 06:18:33
Writing application            : mkvmerge v25.0.0 ('Prog Noir') 32-bit
Writing library                : libebml v1.3.6 + libmatroska v1.4.9

Video
ID                             : 1
Format                         : AVC
Format/Info                    : Advanced Video Codec
Format profile                 : [email protected]
Format settings                : CABAC / 4 Ref Frames
Format settings, CABAC         : Yes
Format settings, ReFrames      : 4 frames
Codec ID                       : V_MPEG4/ISO/AVC
Duration                       : 2 h 28 min
Bit rate mode                  : Constant
Bit rate                       : 25.0 Mb/s
Width                          : 1 920 pixels
Height                         : 1 080 pixels
Display aspect ratio           : 16:9
Frame rate mode                : Constant
Frame rate                     : 24.000 FPS
Color space                    : YUV
Chroma subsampling             : 4:2:0
Bit depth                      : 8 bits
Scan type                      : Progressive
Bits/(Pixel*Frame)             : 0.502
Stream size                    : 24.8 GiB (82%)
Title                          : GOPISAHI
Default                        : Yes
Forced                         : No

Audio #1
ID                             : 2
Format                         : MLP FBA 16-ch
Format/Info                    : Meridian Lossless Packing FBA with 16-channel presentation
Commercial name                : Dolby TrueHD with Dolby Atmos
Codec ID                       : A_TRUEHD
Duration                       : 2 h 28 min
Bit rate mode                  : Variable
Bit rate                       : 3 756 kb/s
Maximum bit rate               : 7 626 kb/s
Channel(s)                     : 8 channels
Channel layout                 : L R C LFE Ls Rs Lb Rb
Sampling rate                  : 48.0 kHz
Frame rate                     : 1 200.000 FPS (40 SPF)
Compression mode               : Lossless
Stream size                    : 3.90 GiB (13%)
Title                          : GOPISAHI
Language                       : Hindi
Default                        : Yes
Forced                         : No
Number of dynamic objects      : 11
Bed channel count              : 1 channel
Bed channel configuration      : LFE

Audio #2
ID                             : 3
Format                         : AC-3
Format/Info                    : Audio Coding 3
Commercial name                : Dolby Digital
Codec ID                       : A_AC3
Duration                       : 2 h 28 min
Bit rate mode                  : Constant
Bit rate                       : 640 kb/s
Channel(s)                     : 6 channels
Channel layout                 : L R C LFE Ls Rs
Sampling rate                  : 48.0 kHz
Frame rate                     : 31.250 FPS (1536 SPF)
Bit depth                      : 16 bits
Compression mode               : Lossy
Stream size                    : 680 MiB (2%)
Title                          : GOPISAHI
Language                       : Hindi
Service kind                   : Complete Main
Default                        : No
Forced                         : No

Audio #3
ID                             : 4
Format                         : AC-3
Format/Info                    : Audio Coding 3
Commercial name                : Dolby Digital
Codec ID                       : A_AC3
Duration                       : 2 h 28 min
Bit rate mode                  : Constant
Bit rate                       : 640 kb/s
Channel(s)                     : 6 channels
Channel layout                 : L R C LFE Ls Rs
Sampling rate                  : 48.0 kHz
Frame rate                     : 31.250 FPS (1536 SPF)
Bit depth                      : 16 bits
Compression mode               : Lossy
Stream size                    : 680 MiB (2%)
Title                          : GOPISAHI
Language                       : Hindi
Service kind                   : Complete Main
Default                        : No
Forced                         : No

Text
ID                             : 5
Format                         : PGS
Muxing mode                    : zlib
Codec ID                       : S_HDMV/PGS
Codec ID/Info                  : Picture based subtitle format used on BDs/HD-DVDs
Duration                       : 2 h 22 min
Bit rate                       : 20.4 kb/s
Count of elements              : 2806
Stream size                    : 20.9 MiB (0%)
Title                          : GOPISAHI
Language                       : English
Default                        : Yes
Forced                         : No


TORRENT SEED SPEED 1 GB PER SECENOD
ENJOY


Post a Comment

0 Comments