Search

Zhong Kui Snow Girl And The Dark Crystal 2015 x264 720p HD Dual Audio Chinese Hindi GOPISAHI


Format                         : Matroska
Format version                 : Version 4 / Version 2
File size                      : 862 MiB
Duration                       : 1 h 57 min
Overall bit rate               : 1 024 kb/s
Movie name                     : Zhong Kui Snow Girl And The Dark Crystal 2015 GOPISAHI

Video
Format                         : AVC
Format/Info                    : Advanced Video Codec
Codec ID                       : V_MPEG4/ISO/AVC
Duration                       : 1 h 57 min
Bit rate                       : 799 kb/s
Width                          : 1 280 pixels
Height                         : 536 pixels
Display aspect ratio           : 2.40:1
Frame rate mode                : Constant
Frame rate                     : 25.000 FPS
Color space                    : YUV
Chroma subsampling             : 4:2:0
Bit depth                      : 8 bits
Scan type                      : Progressive
Bits/(Pixel*Frame)             : 0.047
Stream size                    : 673 MiB (78%)
Title                          : GOPISAHI
Writing library                : x264 core 155 r2901 7d0ff22

Audio #1
Format                         : AAC
Format/Info                    : Advanced Audio Codec
Duration                       : 1 h 57 min
Bit rate                       : 126 kb/s
Channel(s)                     : 2 channels
Channel positions              : Front: L R
Sampling rate                  : 44.1 kHz
Frame rate                     : 43.066 FPS (1024 SPF)
Compression mode               : Lossy
Delay relative to video        : -101 ms
Stream size                    : 106 MiB (12%)
Title                          : GOPISAHI
Language                       : Hindi

Audio #2
Format                         : AAC
Duration                       : 1 h 57 min
Bit rate                       : 96.0 kb/s
Channel(s)                     : 2 channels
Channel positions              : Front: L R
Sampling rate                  : 48.0 kHz
Frame rate                     : 46.875 FPS (1024 SPF)
Compression mode               : Lossy
Delay relative to video        : -101 ms
Stream size                    : 81.0 MiB (9%)
Title                          : GOPISAHI
Language                       : Chinese





Post a Comment

3 Comments

  1. Fox and the hound 1981 please add with bluray poster with english sub

    https://nl17.seedr.cc/ff_get/350977795/The%20Fox%20and%20the%20Hound%20[1981]%20720p%20BR%20Rip%20x264%20[AC-3%20~%202.0]%20[HINDI%20-%20ENG]%20%20Im%20Loser%20.mkv?st=ADl_j2zX9-Mtn8zjY07t3Q&e=1538102665

    ReplyDelete
  2. https://nl17.seedr.cc/ff_get/350977795/The%20Fox%20and%20the%20Hound%20[1981]%20720p%20BR%20Rip%20x264%20[AC-3%20~%202.0]%20[HINDI%20-%20ENG]%20%20Im%20Loser%20.mkv?st=ADl_j2zX9-Mtn8zjY07t3Q&e=1538102665

    ReplyDelete
  3. Tom and Jerry wizard of oz 2011
    https://mega.nz/#!FfQAXCza!hZm5jh2pDfFGyim8SMxg_5o173UffL9n_xrpv2ySTkE
    Remux This audio with video
    https://fr2.seedr.cc/ff_get/353366798/Tom.And.Jerry.And.The.Wizard.Of.OZ.2011.720p.BRRip.x264-x0r.mkv?st=4LIwH1QfwpYvPmeaivSc1w&e=1538256918

    ReplyDelete