Search

Blue Streak 1999 x264 720p Esub BluRay Dual Audio English Hindi GOPI SAHI


Format                         : Matroska
Format version                 : Version 4 / Version 2
File size                      : 736 MiB
Duration                       : 1 h 34 min
Overall bit rate               : 1 094 kb/s
Movie name                     : Blue Streak 1999 GOPISAHI

Video
ID                             : 1
Format                         : AVC
Format/Info                    : Advanced Video Codec
Format profile                 : [email protected]
Format settings                : CABAC / 5 Ref Frames
Format settings, CABAC         : Yes
Format settings, ReFrames      : 5 frames
Codec ID                       : V_MPEG4/ISO/AVC
Duration                       : 1 h 34 min
Bit rate                       : 899 kb/s
Width                          : 1 280 pixels
Height                         : 682 pixels
Display aspect ratio           : 1.85:1
Frame rate mode                : Constant
Frame rate                     : 23.976 (24000/1001) FPS
Color space                    : YUV
Chroma subsampling             : 4:2:0
Bit depth                      : 8 bits
Scan type                      : Progressive
Bits/(Pixel*Frame)             : 0.043
Stream size                    : 605 MiB (82%)
Title                          : GOPISAHI
Writing library                : x264 core 155

Audio #1
Format                         : AAC
Duration                       : 1 h 34 min
Bit rate                       : 96.0 kb/s
Channel(s)                     : 2 channels
Channel positions              : Front: L R
Sampling rate                  : 48.0 kHz
Frame rate                     : 46.875 FPS (1024 SPF)
Compression mode               : Lossy
Delay relative to video        : -21 ms
Stream size                    : 64.8 MiB (9%)
Title                          : GOPISAHI
Language                       : Hindi

Audio #2
ID                             : 3
Format                         : AAC
Format/Info                    : Advanced Audio
Duration                       : 1 h 34 min
Bit rate                       : 96.0 kb/s
Channel(s)                     : 2 channels
Channel positions              : Front: L R
Sampling rate                  : 48.0 kHz
Frame rate                     : 46.875 FPS (1024 SPF)
Compression mode               : Lossy
Delay relative to video        : 20 ms
Stream size                    : 64.8 MiB (9%)
Title                          : GOPISAHI
Language                       : English

Text
Language                       : English

Menu
00:00:00.000                   : en:The Robbery
00:11:04.330                   : en:X Marks the Spot
00:18:03.082                   : en:Pizza Man
00:22:22.383                   : en:Officer Malone LAPD
00:30:13.895                   : en:Burglary Investigation
00:35:49.314                   : en:Liquor Store Heist
00:38:51.412                   : en:Alley Shootout
00:47:50.618                   : en:Police Meeting
00:50:29.109                   : en:Interrogating Tulley
00:56:26.258                   : en:Airport Crime Scene
01:03:15.125                   : en:Old School Training
01:07:44.477                   : en:Getting Wired
01:11:27.533                   : en:Warehouse 3
01:17:29.145                   : en:Sting Operation
01:23:10.986                   : en:Showdown
01:27:58.190                   : en:Free Man




Post a Comment

0 Comments