Search

Dadnapped 2009 x264 720p Hindi GOPISAHI


Format                         : Matroska
Format version                 : Version 4 / Version 2
File size                      : 686 MiB
Duration                       : 1 h 19 min
Overall bit rate               : 1 199 kb/s
Movie name                     : Dadnapped 2009 GOPISAHI

Video
Format                         : AVC
Codec ID                       : V_MPEG4/ISO/AVC
Duration                       : 1 h 19 min
Bit rate                       : 1 100 kb/s
Width                          : 1 280 pixels
Height                         : 726 pixels
Display aspect ratio           : 16:9
Frame rate mode                : Variable
Frame rate                     : 24.938 FPS
Color space                    : YUV
Chroma subsampling             : 4:2:0
Bit depth                      : 8 bits
Scan type                      : Progressive
Bits/(Pixel*Frame)             : 0.047
Stream size                    : 629 MiB (92%)
Title                          : GOPISAHI
Writing library                : x264 core 155 r2901 7d0ff22

Audio
Format                         : AAC
Format/Info                    : Advanced Audio Codec
Duration                       : 1 h 19 min
Bit rate                       : 96.0 kb/s
Channel(s)                     : 2 channels
Channel positions              : Front: L R
Sampling rate                  : 48.0 kHz
Frame rate                     : 46.875 FPS (1024 SPF)
Compression mode               : Lossy
Delay relative to video        : -21 ms
Stream size                    : 55.2 MiB (8%)
Title                          : GOPISAHI
Language                       : Hindi




Post a Comment

0 Comments