Search

Hard Target 1993 x264 720p Esub BD Dual Audio English Hindi GOPISAHI


Format                         : Matroska
Format version                 : Version 4 / Version 2
File size                      : 708 MiB
Duration                       : 1 h 39 min
Overall bit rate               : 994 kb/s
Movie name                     : Hard Target 1993 GOPISAHI

Video
Format                         : AVC
Format/Info                    : Advanced Video Codec
Codec ID                       : V_MPEG4/ISO/AVC
Duration                       : 1 h 39 min
Bit rate                       : 799 kb/s
Width                          : 1 280 pixels
Height                         : 692 pixels
Display aspect ratio           : 1.85:1
Frame rate mode                : Constant
Frame rate                     : 23.976 (24000/1001) FPS
Color space                    : YUV
Chroma subsampling             : 4:2:0
Bit depth                      : 8 bits
Scan type                      : Progressive
Bits/(Pixel*Frame)             : 0.038
Stream size                    : 569 MiB (80%)
Title                          : GOPISAHI
Writing library                : x264 core 155 r2901 7d0ff22

Audio #1
Format                         : AAC
Format/Info                    : Advanced Audio Codec
Duration                       : 1 h 39 min
Bit rate                       : 96.0 kb/s
Channel(s)                     : 2 channels
Channel positions              : Front: L R
Sampling rate                  : 48.0 kHz
Frame rate                     : 46.875 FPS (1024 SPF)
Compression mode               : Lossy
Delay relative to video        : -21 ms
Stream size                    : 68.5 MiB (10%)
Title                          : GOPISAHI
Language                       : Hindi

Audio #2
Format                         : AAC
Duration                       : 1 h 39 min
Bit rate                       : 96.0 kb/s
Channel(s)                     : 2 channels
Channel positions              : Front: L R
Sampling rate                  : 48.0 kHz
Frame rate                     : 46.875 FPS (1024 SPF)
Compression mode               : Lossy
Delay relative to video        : -21 ms
Stream size                    : 68.5 MiB (10%)
Title                          : GOPISAHI
Language                       : English

Text
Language                       : English





http://1upload.pw/Download.php?url=cmFPcUV4L1M0QzdvRmVPZVhTM2h1VTNlZzlhVlpKS2lsbGtwSzI0RkpJZTU0ZGJwRGs3c0tNZmNUOFduUzk4UA==

https://linkstaker.club/drive/download.php?id=3cc8f3ff92f9d3b49310

https://linksclub.biz/drive/download.php?id=819ac44be3e581896bd6

http://www.mediafire.com/file/74wg5xtn821ggku/HaT_19.zip/file

https://mega.nz/#!W75RUA4Z!dfllxeISBodkCc-8z0Us486-XbDB19oszZwMIq4IhVM

https://my.pcloud.com/publink/show?code=XZ8dV97ZazqcUbgXr5YUIWlF1bLDUhbWFxTX

https://www.oboom.com/CCEOLN42

https://uploadfiles.pw/48cb836127a786cb

http://www.filefactory.com/file/6bec6gaw54vt/

https://uptobox.com/960jw8eqq4ry

https://megaup.net/mvZy/Hard_Target_1993_x264_720p_Esub_BD_Dual_Audio_English_Hindi_GOPISAHI.mkv

https://openload.co/f/IuvrK7vkFKU/Hard%2520Target%25201993%2520x264%2520720p%2520Esub%2520BD%2520Dual%2520Audio%2520English%2520Hindi%2520GOPISAHI.mkv.mp4

933 MB 720P HINDI


Post a Comment

0 Comments