Search

Indiana Jones Trilogy 720p Esub BluRay Dual Audio English Hindi GOPISAHI


  • The Raiders Of The Lost Ark 1981 GOPISAHI.mkv (732.8 MB)
  • The Kingdom Of The Crystal Skull 2008 GOPISAHI.mkv (795.9 MB)
  • The Last Crusade 1989 GOPISAHI.mkv (887.4 MB)
Format                         : Matroska
Format version                 : Version 4 / Version 2
File size                      : 733 MiB
Duration                       : 1 h 55 min
Overall bit rate               : 890 kb/s
Movie name                     : The Raiders of the Lost Ark 1981 GOPISAHI

Video
Format                         : AVC
Format/Info                    : Advanced Video Codec
Codec ID                       : V_MPEG4/ISO/AVC
Duration                       : 1 h 55 min
Bit rate                       : 699 kb/s
Width                          : 1 280 pixels
Height                         : 534 pixels
Display aspect ratio           : 2.40:1
Frame rate mode                : Constant
Frame rate                     : 23.976 (24000/1001) FPS
Color space                    : YUV
Chroma subsampling             : 4:2:0
Bit depth                      : 8 bits
Scan type                      : Progressive
Bits/(Pixel*Frame)             : 0.043
Stream size                    : 575 MiB (78%)
Title                          : GOPISAHI
Writing library                : x264 core 155 r2901 7d0ff22

Audio #1
Format                         : AAC
Format/Info                    : Advanced Audio Codec
Duration                       : 1 h 51 min
Bit rate                       : 96.0 kb/s
Channel(s)                     : 2 channels
Channel positions              : Front: L R
Sampling rate                  : 48.0 kHz
Frame rate                     : 46.875 FPS (1024 SPF)
Compression mode               : Lossy
Delay relative to video        : 3 s 479 ms
Stream size                    : 76.3 MiB (10%)
Title                          : GOPISAHI
Language                       : Hindi

Audio #2
Format                         : AAC
Format/Info                    : Advanced Audio Codec
Format profile                 : LC
Duration                       : 1 h 55 min
Bit rate                       : 96.0 kb/s
Channel(s)                     : 2 channels
Channel positions              : Front: L R
Sampling rate                  : 48.0 kHz
Frame rate                     : 46.875 FPS (1024 SPF)
Compression mode               : Lossy
Delay relative to video        : -21 ms
Stream size                    : 79.1 MiB (11%)
Title                          : GOPISAHI
Language                       : English

Text
Language                       : English

Menu
00:00:00.000                   : en:South America, 1936
00:03:16.530                   : en:The Man with the Hat
00:05:44.636                   : en:The Golden Idol
00:09:51.132                   : en:Belloq and the Hovitos
00:12:49.352                   : en:Archaeology Lesson
00:15:23.631                   : en:Special Assignment
00:20:27.560                   : en:Cautious Guy
00:22:58.586                   : en:Nepal The Raven
00:28:51.438                   : en:Fight for the Medallion
00:33:42.562                   : en:To Cairo
00:36:23.390                   : en:The Marketplace
00:40:04.819                   : en:Basket Chase
00:42:16.159                   : en:Meeting with Belloq
00:46:41.507                   : en:Bad Dates
00:49:32.928                   : en:Tanis Dig
00:51:00.933                   : en:The Map Room
00:55:11.141                   : en:Reunited with Marion
00:58:33.218                   : en:Uncovering the Well of Souls
01:03:05.740                   : en:Into the Well of Souls
01:08:26.144                   : en:The Ark Revealed
01:10:25.346                   : en:Trapped
01:15:33.154                   : en:Flying Wing
01:22:24.356                   : en:Desert Chase
01:25:43.764                   : en:Dragged Behind
01:29:57.517                   : en:The Bantu Wind
01:34:30.665                   : en:Confrontation at Sea
01:38:06.214                   : en:The Nazis' Secret Island
01:41:06.060                   : en:Indy's Bluff
01:44:06.949                   : en:The Ark Ceremony
01:47:01.415                   : en:The Power of the Ark
01:49:05.998                   : en:Washington D.C.
01:51:02.030                   : en:End Credits






1989







2008


Post a Comment

1 Comments

  1. hey! can you please upload "The Theory of Everything 2014" even if its in English only. Please! BTW THNX fo many movies.

    ReplyDelete