Search

Karwaan 2018 x264 720p Esub Hindi GOPISAHI


Format                         : Matroska
Format version                 : Version 4 / Version 2
File size                      : 731 MiB
Duration                       : 1 h 53 min
Overall bit rate               : 897 kb/s
Movie name                     : Karwaan 2018 GOPISAHI

Video
Format                         : AVC
Format/Info                    : Advanced Video Codec
Codec ID                       : V_MPEG4/ISO/AVC
Duration                       : 1 h 53 min
Bit rate                       : 799 kb/s
Width                          : 1 280 pixels
Height                         : 542 pixels
Display aspect ratio           : 2.35:1
Frame rate mode                : Constant
Frame rate                     : 24.000 FPS
Color space                    : YUV
Chroma subsampling             : 4:2:0
Bit depth                      : 8 bits
Scan type                      : Progressive
Bits/(Pixel*Frame)             : 0.048
Stream size                    : 651 MiB (89%)
Title                          : GOPISAHI
Writing library                : x264 core 155 r2901 7d0ff22
Language                       : Hindi

Audio
Format                         : AAC
Format/Info                    : Advanced Audio Codec
Duration                       : 1 h 53 min
Bit rate                       : 96.0 kb/s
Channel(s)                     : 2 channels
Channel positions              : Front: L R
Sampling rate                  : 48.0 kHz
Frame rate                     : 46.875 FPS (1024 SPF)
Compression mode               : Lossy
Delay relative to video        : -26 ms
Stream size                    : 78.2 MiB (11%)
Title                          : GOPISAHI
Language                       : Hindi

Text
Language                       : English




https://megaup.net/uL5R/Karwaan_2018_x264_720p_Esub__Hindi_GOPISAHI.mkv

https://uploadfiles.pw/06a90d6afd8117c2

https://openload.co/f/2enTchJfRg0/Karwaan%25202018%2520x264%2520720p%2520Esub%2520%2520Hindi%2520GOPISAHI.mkv.mp4

315 MB

Post a Comment

0 Comments