Search

Ouija Origin of Evil 2016 x264 720p Esub BluRay Dual Audio English Hindi (Hammer) GOPISAHI

Format                         : Matroska
Format version                 : Version 4 / Version 2
File size                      : 843 MiB
Duration                       : 1 h 38 min
Overall bit rate               : 1 191 kb/s
Movie name                     : Ouija Origin of Evil 2016 GOPISAHI

Video
Format                         : AVC
Format/Info                    : Advanced Video Codec
Codec ID                       : V_MPEG4/ISO/AVC
Duration                       : 1 h 38 min
Bit rate                       : 900 kb/s
Width                          : 1 280 pixels
Height                         : 682 pixels
Display aspect ratio           : 1.85:1
Frame rate mode                : Constant
Frame rate                     : 23.976 (24000/1001) FPS
Color space                    : YUV
Chroma subsampling             : 4:2:0
Bit depth                      : 8 bits
Scan type                      : Progressive
Bits/(Pixel*Frame)             : 0.043
Stream size                    : 637 MiB (76%)
Title                          : GOPISAHI
Writing library                : x264 core 148

Audio #1
Format                         : AAC
Format/Info                    : Advanced Audio Codec
Duration                       : 1 h 38 min
Bit rate                       : 192 kb/s
Channel(s)                     : 6 channels
Channel positions              : Front: L C R, Side: L R, LFE
Sampling rate                  : 48.0 kHz
Frame rate                     : 46.875 FPS (1024 SPF)
Stream size                    : 136 MiB (16%)
Title                          : GOPISAHI
Language                       : Hindi

Audio #2
Format                         : AAC
Format/Info                    : Advanced Audio Codec
Duration                       : 1 h 38 min
Bit rate                       : 96.0 kb/s
Channel(s)                     : 2 channels
Channel positions              : Front: L R
Sampling rate                  : 48.0 kHz
Frame rate                     : 46.875 FPS (1024 SPF)
Compression mode               : Lossy
Delay relative to video        : -43 ms
Stream size                    : 68.0 MiB (8%)
Title                          : GOPISAHI
Language                       : English

Text
Language                       : English





Post a Comment

0 Comments