Search

+18 Redirected 2014 x264 720p Esub BluRay Dual Audio English Hindi GOPISAHI


Format                         : Matroska
Format version                 : Version 4 / Version 2
File size                      : 704 MiB
Duration                       : 1 h 38 min
Overall bit rate               : 995 kb/s
Movie name                     : Redirected  2014 GOPISAHI

Video
Format                         : AVC
Codec ID                       : V_MPEG4/ISO/AVC
Duration                       : 1 h 38 min
Bit rate                       : 799 kb/s
Width                          : 1 280 pixels
Height                         : 720 pixels
Display aspect ratio           : 16:9
Frame rate mode                : Constant
Frame rate                     : 24.000 FPS
Color space                    : YUV
Chroma subsampling             : 4:2:0
Bit depth                      : 8 bits
Scan type                      : Progressive
Bits/(Pixel*Frame)             : 0.036
Stream size                    : 565 MiB (80%)
Title                          : GOPISAHI
Writing library                : x264 core 148 r2708 86b7198

Audio #1
Format                         : AAC
Duration                       : 1 h 38 min
Bit rate                       : 96.0 kb/s
Channel(s)                     : 2 channels
Channel positions              : Front: L R
Sampling rate                  : 48.0 kHz
Frame rate                     : 46.875 FPS (1024 SPF)
Compression mode               : Lossy
Delay relative to video        : -21 ms
Stream size                    : 68.3 MiB (10%)
Title                          : GOPISAHI
Language                       : Hindi

Audio #2
Format                         : AAC
Duration                       : 1 h 38 min
Bit rate                       : 96.0 kb/s
Channel(s)                     : 2 channels
Channel positions              : Front: L R
Sampling rate                  : 48.0 kHz
Frame rate                     : 46.875 FPS (1024 SPF)
Compression mode               : Lossy
Delay relative to video        : -21 ms
Stream size                    : 68.1 MiB (10%)
Title                          : GOPISAHI
Language                       : English

Text #1
Language                       : English

Text #2
Language                       : English



TORRENT

MAGNET

http://www.mediafire.com/file/ul9k67tsbvdp5l9/Redirected+2014.zip

https://uploadfiles.pw/883b5f2d1e0c06b3?pt=%2BT8lZze7WEjTp8IXtseGNHyy9BtMwfMPeJkdVMIlC0Y%3D


 Redirected
(2014) on IMDb

Post a Comment

0 Comments