Search

Soorma 2018 x264 720p Esub Hindi GOPISAHI


Format                         : Matroska
Format version                 : Version 4 / Version 2
File size                      : 667 MiB
Duration                       : 2 h 10 min
Overall bit rate               : 713 kb/s
Movie name                     : Soorma 2018 GOPISAHI

Video
Format                         : AVC
Format/Info                    : Advanced Video Codec
Duration                       : 2 h 10 min
Bit rate                       : 599 kb/s
Width                          : 1 280 pixels
Height                         : 544 pixels
Display aspect ratio           : 2.35:1
Frame rate mode                : Constant
Frame rate                     : 24.000 FPS
Color space                    : YUV
Chroma subsampling             : 4:2:0
Bit depth                      : 8 bits
Scan type                      : Progressive
Bits/(Pixel*Frame)             : 0.036
Stream size                    : 560 MiB (84%)
Title                          : GOPISAHI
Writing library                : x264 core 155 r2901 7d0ff22

Audio
Format                         : AAC
Duration                       : 2 h 10 min
Bit rate                       : 112 kb/s
Channel(s)                     : 2 channels
Channel positions              : Front: L R
Sampling rate                  : 48.0 kHz
Frame rate                     : 46.875 FPS (1024 SPF)
Compression mode               : Lossy
Delay relative to video        : -21 ms
Stream size                    : 105 MiB (16%)
Title                          : GOPISAHI
Language                       : Hindi

Text
Language                       : English





Post a Comment

0 Comments