Search

The Black Prince 2017 x264 720p Esub Dual Audio Punjabi Hindi GOPISAHI


Format                         : Matroska
Format version                 : Version 4 / Version 2
File size                      : 567 MiB
Duration                       : 2 h 0 min
Overall bit rate               : 656 kb/s
Movie name                     : The Black Prince 2017 GOPISAHI

Video
Format                         : AVC
Format/Info                    : Advanced Video Codec
Codec ID                       : V_MPEG4/ISO/AVC
Duration                       : 2 h 0 min
Bit rate                       : 500 kb/s
Width                          : 1 280 pixels
Height                         : 530 pixels
Display aspect ratio           : 2.40:1
Original display aspect ratio  : 2.40:1
Frame rate mode                : Constant
Frame rate                     : 25.000 FPS
Color space                    : YUV
Chroma subsampling             : 4:2:0
Bit depth                      : 8 bits
Scan type                      : Progressive
Bits/(Pixel*Frame)             : 0.029
Stream size                    : 432 MiB (76%)
Title                          : GOPISAHI
Writing library                : x264 core 155 r2893 b00bcaf

Audio #1
Format                         : AAC
Format/Info                    : Advanced Audio Codec
Duration                       : 2 h 0 min
Bit rate                       : 96.0 kb/s
Channel(s)                     : 2 channels
Channel positions              : Front: L R
Sampling rate                  : 48.0 kHz
Frame rate                     : 46.875 FPS (1024 SPF)
Stream size                    : 83.2 MiB (15%)
Title                          : GOPISAHI
Language                       : Panjabi

Audio #2
Format                         : AAC
Format/Info                    : Advanced Audio Codec
Duration                       : 2 h 0 min
Bit rate                       : 56.6 kb/s
Channel(s)                     : 6 channels
Channel positions              : Front: L C R, Side: L R, LFE
Sampling rate                  : 44.1 kHz
Frame rate                     : 43.066 FPS (1024 SPF)
Compression mode               : Lossy
Stream size                    : 49.0 MiB (9%)
Title                          : GOPISAHI
Language                       : Hindi

Text




https://megaup.net/e750/The_Black_Prince_2017_x264_720p_Esub_Dual_Audio_Punjabi_Hindi_GOPISAHI.mkv

https://www.oboom.com/YV05BFY4

https://uploadfiles.pw/3f507129112494df



HINDI 488 MB 720P ESUB

https://www.oboom.com/GD2ED0DW

https://megaup.net/ijeV/YUhSMGNITTZMeTl2Y0dWdWJHOWhaQzVqYnk5bUwxZFlURXBDVlVkbGR6bG5MMVJvWlNVeU5USXdRbXhoWTJzbE1qVXlNRkJ5YVc1alpTVXlOVEl3TWpBeE55VXlOVEl3UlhOMVlpVXlOVEl3U0VRbE1qVXlNRGN5TUhBbE1qVXlNRWhwYm1ScEpUSTFNakJIVDFCSlUwRklTUzV0YTNZdWJYQTA=

https://openload.co/f/eyC6Bd-dxsQ/The%2520Black%2520Prince%25202017%2520Esub%2520HD%2520720p%2520Hindi%2520GOPISAHI.mkv.mp4
 
http://1upload.pw/Download.php?url=UDVTVnIrL3NXaW5RNnNKOHBQZHd1YWI4RXY2RWsvaFlmeVgxWEhxNUtYVFNtVXhqeDJXV21ObFpZSXEreWZWYw==

https://linkstaker.club/drive/download.php?id=f6c3e4ece31c0568d8ed

https://linksclub.biz/drive/download.php?id=89c79d8a2fc74c36030f

https://uploadfiles.pw/0e03eee41363f387

690 MB 720P HINDI

LOW


Post a Comment

0 Comments