Search

The Darkest Minds 2018 x264 720p Esub BluRay Dual Audio English Hindi GOPISAHI



Format                         : Matroska
Format version                 : Version 4 / Version 2
File size                      : 590 MiB
Duration                       : 1 h 43 min
Overall bit rate               : 794 kb/s
Movie name                     : The Darkest Minds 2018 GOPISAHI

Video
Format                         : AVC
Format/Info                    : Advanced Video Codec
Codec ID                       : V_MPEG4/ISO/AVC
Duration                       : 1 h 43 min
Bit rate                       : 599 kb/s
Width                          : 1 280 pixels
Height                         : 536 pixels
Display aspect ratio           : 2.40:1
Original display aspect ratio  : 2.40:1
Frame rate mode                : Constant
Frame rate                     : 23.976 (24000/1001) FPS
Color space                    : YUV
Chroma subsampling             : 4:2:0
Bit depth                      : 8 bits
Scan type                      : Progressive
Bits/(Pixel*Frame)             : 0.036
Stream size                    : 445 MiB (75%)
Title                          : GOPISAHI
Writing library                : x264 core 155 r2901 7d0ff22

Audio #1
Format                         : AAC
Duration                       : 1 h 43 min
Bit rate                       : 96.0 kb/s
Channel(s)                     : 2 channels
Channel positions              : Front: L R
Sampling rate                  : 48.0 kHz
Frame rate                     : 46.875 FPS (1024 SPF)
Compression mode               : Lossy
Delay relative to video        : -21 ms
Stream size                    : 71.4 MiB (12%)
Title                          : GOPISAHI
Language                       : Hindi

Audio #2
Format                         : AAC
Duration                       : 1 h 43 min
Bit rate                       : 96.0 kb/s
Channel(s)                     : 2 channels
Channel positions              : Front: L R
Sampling rate                  : 48.0 kHz
Frame rate                     : 46.875 FPS (1024 SPF)
Compression mode               : Lossy
Delay relative to video        : -21 ms
Stream size                    : 71.3 MiB (12%)
Title                          : GOPISAHI
Language                       : English

Text
Language                       : English






TORRENT

MAGNET

https://mega.nz/#!ivRBUCwa!s3JbNPfIbyAivucou78zM0TbtCRzzka5lRerCuV8o9c

https://my.pcloud.com/publink/show?code=XZ7r897ZzBOevjRKvbFrqiehwspTiJsWNOmy

https://linkstaker.club/drive/download.php?id=6feb39935899dd579f11

http://1upload.pw/Download.php?url=cm5LTUxBUUlYM0FDNlJlMllmNm1Ldz09

https://linksclub.biz/drive/download.php?id=e252e4ee33a2f637e022

http://www.mediafire.com/file/8hd6vt4o3472hw0/e_Da_Mi_18_.zip/file

https://megaup.net/mxeM/The_Darkest_Minds_2018_x264_720p_Esub_BluRay_Dual_Audio_English_Hindi_GOPISAHI.mkv

https://uptobox.com/qy1jbtnxl12a

Post a Comment

0 Comments