Search

The Purge x264 Trilogy 720p BluRay Dual Audio English Hindi GOPISAHI


Format                         : Matroska
Format version                 : Version 4 / Version 2
File size                      : 736 MiB
Duration                       : 1 h 43 min
Overall bit rate               : 994 kb/s
Movie name                     : The Purge 2014 GOPISAHI

Video
Format                         : AVC
Format/Info                    : Advanced Video Codec
Codec ID                       : V_MPEG4/ISO/AVC
Duration                       : 1 h 43 min
Bit rate                       : 799 kb/s
Width                          : 1 280 pixels
Height                         : 536 pixels
Display aspect ratio           : 2.40:1
Frame rate mode                : Constant
Frame rate                     : 23.976 (23976/1000) FPS
Color space                    : YUV
Chroma subsampling             : 4:2:0
Bit depth                      : 8 bits
Scan type                      : Progressive
Bits/(Pixel*Frame)             : 0.049
Stream size                    : 592 MiB (80%)
Title                          : GOPISAHI
Writing library                : x264 core 155 r2901 7d0ff22

Audio #1
Format                         : AAC
Duration                       : 1 h 43 min
Bit rate                       : 96.0 kb/s
Channel(s)                     : 2 channels
Channel positions              : Front: L R
Sampling rate                  : 48.0 kHz
Frame rate                     : 46.875 FPS (1024 SPF)
Compression mode               : Lossy
Delay relative to video        : -21 ms
Stream size                    : 71.2 MiB (10%)
Title                          : GOPISAHI
Language                       : Hindi

Audio #2
Format                         : AAC
Format/Info                    : Advanced Audio Codec
Duration                       : 1 h 43 min
Bit rate                       : 96.0 kb/s
Channel(s)                     : 2 channels
Channel positions              : Front: L R
Sampling rate                  : 48.0 kHz
Frame rate                     : 46.875 FPS (1024 SPF)
Compression mode               : Lossy
Delay relative to video        : -21 ms
Stream size                    : 71.2 MiB (10%)
Title                          : GOPISAHI
Language                       : English














2014




 https://www.oboom.com/99OL4V8T

https://megaup.net/igqS/The_Purge_Anarchy_2014_GOPISAHI.mkv

https://uploadfiles.pw/a8e3fc1a3b2b7fbc

https://my.pcloud.com/publink/show?code=XZkuCn7Z5M0PfoBGz2QdL7U8iLGqUBuUfWW7

https://openload.co/f/na0M3aH60dA/The%2520Purge%2520Anarchy%25202014%2520GOPISAHI.mkv.mp4

668 MB HINDI 720P  


2016










Post a Comment

0 Comments