Search

The Wild Thornberrys Movie 2002 x264 720p Esub Dual Audio English Hindi GOPISAHI


 Format                         : Matroska
Format version                 : Version 4 / Version 2
File size                      : 668 MiB
Duration                       : 1 h 25 min
Overall bit rate               : 1 094 kb/s
Movie name                     : The Wild Thornberrys Movie 2002 GOPISAHI

Video
Format                         : AVC
Format/Info                    : Advanced Video Codec
Codec ID                       : V_MPEG4/ISO/AVC
Duration                       : 1 h 25 min
Bit rate                       : 899 kb/s
Width                          : 1 280 pixels
Height                         : 542 pixels
Display aspect ratio           : 2.35:1
Frame rate mode                : Constant
Frame rate                     : 25.000 FPS
Color space                    : YUV
Chroma subsampling             : 4:2:0
Bit depth                      : 8 bits
Scan type                      : Progressive
Bits/(Pixel*Frame)             : 0.052
Stream size                    : 549 MiB (82%)
Title                          : GOPISAHI
Writing library                : x264 core 155 r2901 7d0ff22
Language                       : English

Audio #1
Format                         : AAC
Duration                       : 1 h 25 min
Bit rate                       : 96.0 kb/s
Channel(s)                     : 2 channels
Channel positions              : Front: L R
Sampling rate                  : 48.0 kHz
Frame rate                     : 46.875 FPS (1024 SPF)
Compression mode               : Lossy
Delay relative to video        : -67 ms
Stream size                    : 58.4 MiB (9%)
Title                          : GOPISAHI
Language                       : Hindi

Audio #2
Format                         : AAC
Format/Info                    : Advanced Audio Codec
Duration                       : 1 h 25 min
Bit rate                       : 96.0 kb/s
Channel(s)                     : 2 channels
Channel positions              : Front: L R
Sampling rate                  : 48.0 kHz
Frame rate                     : 46.875 FPS (1024 SPF)
Compression mode               : Lossy
Delay relative to video        : -15 ms
Stream size                    : 58.8 MiB (9%)
Title                          : GOPISAHI
Language                       : English

Text
Language                       : English

Menu
00:00:00.000                   : en:Eliza's Story
00:02:08.006                   : en:Cheetah Chase
00:03:58.126                   : en:Campsite Stampede
00:05:51.126                   : en:Helicopter Rescue
00:11:35.126                   : en:Cordelia's Decree
00:17:36.126                   : en:Leaving for Boarding School
00:23:42.086                   : en:Darwin Gets In Trouble
00:30:42.086                   : en:Two Tickets To Africa
00:35:40.006                   : en:Sarcastic Debbie
00:37:23.046                   : en:An Injured Rhinoceros
00:40:58.046                   : en:Home Again
00:45:40.086                   : en:Lost In The Jungle
00:49:42.046                   : en:Debbie Meets Boko
00:53:17.046                   : en:Captured By Poachers
01:00:52.046                   : en:Not An Ordinary Girl
01:06:22.046                   : en:Stopping The Stampede
01:11:27.006                   : en:The Shaman
01:14:05.086                   : en:Baboon Dance





Post a Comment

0 Comments