Search

Ultimate Avengers Ii 2006 x264 720p Esub Dual Audio English Hindi GOPISAHI


Format                         : Matroska
Format version                 : Version 4 / Version 2
File size                      : 479 MiB
Duration                       : 1 h 12 min
Overall bit rate               : 919 kb/s
Movie name                     : Ultimate Avengers Ii 2006 GOPISAHI

Video
Format                         : AVC
Format/Info                    : Advanced Video Codec
Codec ID                       : V_MPEG4/ISO/AVC
Duration                       : 1 h 12 min
Bit rate                       : 599 kb/s
Width                          : 1 280 pixels
Height                         : 720 pixels
Display aspect ratio           : 16:9
Frame rate mode                : Constant
Frame rate                     : 23.976 (24000/1001) FPS
Color space                    : YUV
Chroma subsampling             : 4:2:0
Bit depth                      : 8 bits
Scan type                      : Progressive
Bits/(Pixel*Frame)             : 0.027
Stream size                    : 312 MiB (65%)
Title                          : GOPISAHI
Writing library                : x264 core 155 r2901 7d0ff22
Language                       : English

Audio #1
Format                         : AAC
Format/Info                    : Advanced Audio Codec
Duration                       : 1 h 10 min
Bit rate                       : 96.0 kb/s
Channel(s)                     : 2 channels
Channel positions              : Front: L R
Sampling rate                  : 48.0 kHz
Frame rate                     : 46.875 FPS (1024 SPF)
Compression mode               : Lossy
Delay relative to video        : -1 s 105 ms
Stream size                    : 48.1 MiB (10%)
Title                          : GOPISAHI
Language                       : Hindi

Audio #2
Format                         : AAC
Format/Info                    : Advanced Audio Codec
Duration                       : 1 h 12 min
Bit rate                       : 96.0 kb/s
Channel(s)                     : 2 channels
Channel positions              : Front: L R
Sampling rate                  : 48.0 kHz
Frame rate                     : 46.875 FPS (1024 SPF)
Compression mode               : Lossy
Delay relative to video        : -1 s 105 ms
Stream size                    : 50.1 MiB (10%)
Title                          : GOPISAHI
Language                       : English

Audio #3
Format                         : AAC
Format/Info                    : Advanced Audio Codec
Duration                       : 1 h 12 min
Bit rate                       : 64.2 kb/s
Channel(s)                     : 2 channels
Channel positions              : Front: L R
Sampling rate                  : 48.0 kHz
Frame rate                     : 46.875 FPS (1024 SPF)
Compression mode               : Lossy
Delay relative to video        : -1 s 105 ms
Stream size                    : 33.4 MiB (7%)
Title                          : GOPISAHI
Language                       : Telugu

Audio #4
Format                         : AAC
Format/Info                    : Advanced Audio Codec
Duration                       : 1 h 12 min
Bit rate                       : 64.2 kb/s
Channel(s)                     : 2 channels
Channel positions              : Front: L R
Sampling rate                  : 48.0 kHz
Frame rate                     : 46.875 FPS (1024 SPF)
Compression mode               : Lossy
Delay relative to video        : -1 s 105 ms
Stream size                    : 33.4 MiB (7%)
Title                          : GOPISAHI
Language                       : Latin

Text
Language                       : English




Post a Comment

2 Comments

  1. http://www.telugupalaka.com/python-2000-telugu-dubbed-720p-bdrip-multi-audio/

    ReplyDelete
    Replies
    1. http://www.gopisahi.pw/2018/05/python-2000-720p-x264-esub-dvd-dual.html

      Delete