+18 Satin Steel 1994 x264 1080p Dual Audio CHI Hindi GOPISAHI

Format                         : Matroska
Format version                 : Version 4 / Version 2
File size                      : 886 MiB
Duration                       : 1 h 20 min
Overall bit rate               : 1 541 kb/s
Movie name                     : Satin Steel 1994 GOPISAHI

Video
Format                         : AVC
Format/Info                    : Advanced Video Codec
Codec ID                       : V_MPEG4/ISO/AVC
Duration                       : 1 h 20 min
Bit rate                       : 1 280 kb/s
Width                          : 1 920 pixels
Height                         : 1 080 pixels
Display aspect ratio           : 16:9
Frame rate mode                : Constant
Frame rate                     : 25.000 FPS
Color space                    : YUV
Chroma subsampling             : 4:2:0
Bit depth                      : 8 bits
Scan type                      : Progressive
Bits/(Pixel*Frame)             : 0.025
Stream size                    : 737 MiB (83%)
Title                          : GOPISAHI
Writing library                : x264 core 148 r2795 aaa9aa8

Audio #1
Format                         : AAC
Duration                       : 1 h 20 min
Bit rate                       : 96.0 kb/s
Channel(s)                     : 2 channels
Channel positions              : Front: L R
Sampling rate                  : 48.0 kHz
Frame rate                     : 46.875 FPS (1024 SPF)
Compression mode               : Lossy
Delay relative to video        : -21 ms
Stream size                    : 55.4 MiB (6%)
Title                          : GOPISAHI
Language                       : Hindi

Format                         : AAC
Duration                       : 1 h 20 min
Bit rate                       : 160 kb/s
Channel(s)                     : 2 channels
Channel positions              : Front: L R
Sampling rate                  : 48.0 kHz
Frame rate                     : 46.875 FPS (1024 SPF)
Compression mode               : Lossy
Delay relative to video        : -21 ms
Stream size                    : 92.3 MiB (10%)
Title                          : GOPISAHI
Language                       : Chinese









Post a Comment

0 Comments