Camp Rock 2 The Final Jam 2010 x264 720p BluRay Dual Audio English Hindi GOPISAHI


Format                         : Matroska
Format version                 : Version 4 / Version 2
File size                      : 869 MiB
Duration                       : 1 h 33 min
Overall bit rate               : 1 295 kb/s
Movie name                     : Camp Rock 2 The Final Jam 2010 GOPISAHI

Video
Format                         : AVC
Format/Info                    : Advanced Video Codec
Codec ID                       : V_MPEG4/ISO/AVC
Duration                       : 1 h 33 min
Bit rate                       : 1 099 kb/s
Width                          : 1 280 pixels
Height                         : 726 pixels
Display aspect ratio           : 16:9
Original display aspect ratio  : 16:9
Frame rate mode                : Variable
Frame rate                     : 24.920 FPS
Color space                    : YUV
Chroma subsampling             : 4:2:0
Bit depth                      : 8 bits
Scan type                      : Progressive
Bits/(Pixel*Frame)             : 0.047
Stream size                    : 737 MiB (85%)
Title                          : GOPISAHI
Writing library                : x264 core 155 r2901 7d0ff22

Audio #1
Format                         : AAC
Duration                       : 1 h 33 min
Bit rate                       : 96.0 kb/s
Channel(s)                     : 2 channels
Channel positions              : Front: L R
Sampling rate                  : 48.0 kHz
Frame rate                     : 46.875 FPS (1024 SPF)
Compression mode               : Lossy
Delay relative to video        : -61 ms
Stream size                    : 64.7 MiB (7%)
Title                          : GOPISAHI
Language                       : Hindi

Audio #2
Format                         : AAC
Duration                       : 1 h 33 min
Bit rate                       : 96.0 kb/s
Channel(s)                     : 2 channels
Channel positions              : Front: L R
Sampling rate                  : 48.0 kHz
Frame rate                     : 46.875 FPS (1024 SPF)
Compression mode               : Lossy
Delay relative to video        : -19 ms
Stream size                    : 64.8 MiB (7%)
Title                          : GOPISAHI
Language                       : English




Post a Comment

0 Comments