Search

Clockstoppers 2002 x264 720p Esub Dual Audio English Hindi GOPISAHI


Format                         : Matroska
Format version                 : Version 4 / Version 2
File size                      : 870 MiB
Duration                       : 1 h 33 min
Overall bit rate               : 1 295 kb/s
Movie name                     : Clockstoppers 2002 GOPISAHI

Video
Format                         : AVC
Format/Info                    : Advanced Video Codec
Codec ID                       : V_MPEG4/ISO/AVC
Duration                       : 1 h 33 min
Bit rate                       : 1 100 kb/s
Width                          : 1 280 pixels
Height                         : 720 pixels
Display aspect ratio           : 16:9
Frame rate mode                : Constant
Frame rate                     : 23.976 (24000/1001) FPS
Color space                    : YUV
Chroma subsampling             : 4:2:0
Bit depth                      : 8 bits
Scan type                      : Progressive
Bits/(Pixel*Frame)             : 0.050
Stream size                    : 739 MiB (85%)
Title                          : GOPISAHI
Writing library                : x264 core 155 r2901 7d0ff22

Audio #1
Format                         : AAC
Duration                       : 1 h 33 min
Bit rate                       : 96.0 kb/s
Channel(s)                     : 2 channels
Channel positions              : Front: L R
Sampling rate                  : 48.0 kHz
Frame rate                     : 46.875 FPS (1024 SPF)
Compression mode               : Lossy
Delay relative to video        : 14 ms
Stream size                    : 64.6 MiB (7%)
Title                          : GOPISAHI
Language                       : Hindi

Audio #2
Format                         : AAC
Duration                       : 1 h 33 min
Bit rate                       : 96.0 kb/s
Channel(s)                     : 2 channels
Channel positions              : Front: L R
Sampling rate                  : 48.0 kHz
Frame rate                     : 46.875 FPS (1024 SPF)
Compression mode               : Lossy
Stream size                    : 64.7 MiB (7%)
Title                          : GOPISAHI
Language                       : English

Text
Language                       : English

Menu
00:00:00.000                   : en:"I Need A Vacation"
00:04:16.047                   : en:Down Payment
00:09:30.028                   : en:The New Girl
00:12:22.033                   : en:Father/Son Conflict
00:17:12.031                   : en:48 Hour Deadline
00:22:19.046                   : en:Hypertime Engaged
00:32:44.045                   : en:Spin Off
00:40:49.072                   : en:Second Chance Man
00:44:39.051                   : en:"Gimme the Watch"
00:50:37.034                   : en:Escape From The Hospital
00:55:03.050                   : en:Tracking Down Dr. Gibbs
01:02:51.059                   : en:Kidnapped
01:09:46.015                   : en:QT Laboratories
01:16:26.082                   : en:Molecular Stabilizer
01:24:27.020                   : en:Zak's Plan Works
01:27:21.027                   : en:Back Home




Post a Comment

2 Comments