Happy Phir Bhag Jaayegi 2018 x264 720p DVD Hindi GOPISAHI

Format                         : Matroska
Format version                 : Version 4 / Version 2
File size                      : 776 MiB
Duration                       : 2 h 16 min
Overall bit rate               : 797 kb/s
Movie name                     : Happy Phir Bhag Jaayegi 2018 GOPISAHI

Video
Format                         : AVC
Format/Info                    : Advanced Video Codec
Codec ID                       : V_MPEG4/ISO/AVC
Duration                       : 2 h 16 min
Bit rate                       : 699 kb/s
Width                          : 1 280 pixels
Height                         : 544 pixels
Display aspect ratio           : 2.35:1
Frame rate mode                : Constant
Frame rate                     : 23.976 (24000/1001) FPS
Color space                    : YUV
Chroma subsampling             : 4:2:0
Bit depth                      : 8 bits
Scan type                      : Progressive
Bits/(Pixel*Frame)             : 0.042
Stream size                    : 680 MiB (88%)
Title                          : GOPISAHI
Writing library                : x264 core 155 r2901 7d0ff22

Audio
Format                         : AAC
Duration                       : 2 h 16 min
Bit rate                       : 96.0 kb/s
Channel(s)                     : 2 channels
Channel positions              : Front: L R
Sampling rate                  : 48.0 kHz
Frame rate                     : 46.875 FPS (1024 SPF)
Compression mode               : Lossy
Delay relative to video        : -21 ms
Stream size                    : 93.7 MiB (12%)
Title                          : GOPISAHI
Language                       : Hindi

Menu
00:00:00.000                   : en:Chapter 1
00:03:54.359                   : en:Chapter 2
00:05:47.389                   : en:Chapter 3
00:13:50.413                   : en:Chapter 4
00:20:08.082                   : en:Chapter 5
00:25:49.673                   : en:Chapter 6
00:31:26.093                   : en:Chapter 7
00:43:38.783                   : en:Chapter 8
00:45:36.776                   : en:Chapter 9
00:52:08.667                   : en:Chapter 10
00:56:56.663                   : en:Chapter 11
01:01:50.498                   : en:Chapter 12
01:19:05.574                   : en:Chapter 13
01:26:45.784                   : en:Chapter 14
01:34:16.734                   : en:Chapter 15
01:54:29.696                   : en:Chapter 16
02:02:37.392                   : en:Chapter 17
02:12:09.171                   : en:Chapter 18
02:15:53.145                   : en:Chapter 19





Post a Comment

0 Comments