Search

Herbie Trilogy x264 720p Esub BluRay Dual Audio English Hindi GOPISAHI


Format                         : Matroska
Format version                 : Version 4 / Version 2
File size                      : 943 MiB
Duration                       : 1 h 41 min
Overall bit rate mode          : Variable
Overall bit rate               : 1 304 kb/s
Movie name                     : Herbie Fully Loaded 2005 GOPISAHI

Video
Format                         : AVC
Format/Info                    : Advanced Video Codec
Codec ID                       : V_MPEG4/ISO/AVC
Duration                       : 1 h 41 min
Bit rate mode                  : Variable
Bit rate                       : 1 110 kb/s
Maximum bit rate               : 62.5 Mb/s
Width                          : 1 280 pixels
Height                         : 688 pixels
Display aspect ratio           : 1.85:1
Frame rate mode                : Constant
Frame rate                     : 23.976 (24000/1001) FPS
Color space                    : YUV
Chroma subsampling             : 4:2:0
Bit depth                      : 8 bits
Scan type                      : Progressive
Bits/(Pixel*Frame)             : 0.053
Stream size                    : 802 MiB (85%)
Title                          : GOPISAHI
Writing library                : x264 core 142 r2431 ac76440

Audio #1
Format                         : AAC
Duration                       : 1 h 40 min
Bit rate                       : 96.0 kb/s
Channel(s)                     : 2 channels
Channel positions              : Front: L R
Sampling rate                  : 48.0 kHz
Frame rate                     : 46.875 FPS (1024 SPF)
Compression mode               : Lossy
Delay relative to video        : 49 ms
Stream size                    : 69.4 MiB (7%)
Title                          : GOPISAHI
Language                       : Hindi

Audio #2
Format                         : AAC
Duration                       : 1 h 40 min
Bit rate                       : 96.0 kb/s
Channel(s)                     : 2 channels
Channel positions              : Front: L R
Sampling rate                  : 48.0 kHz
Frame rate                     : 46.875 FPS (1024 SPF)
Compression mode               : Lossy
Stream size                    : 69.3 MiB (7%)
Title                          : GOPISAHI
Language                       : English

Text
Language                       : English


  • Herbie Goes Bananas 1980 GOPISAHI.mkv (732.3 MB)
  • Herbie Goes To Monte Carlo 1977 GOPISAHI.mkv (820.1 MB)
  • Herbie Fully Loaded 2005 GOPISAHI.mkv (942.6 MB)





1980




2005 



Post a Comment

2 Comments

  1. http://www.telugupalaka.com/herbie-rides-again-telugu-dubbed-1974-720p-bdrip-multi-audio/
    http://www.telugupalaka.com/treasure-planet-telugu-dubbed-2002-720p-bdrip-multi-audio/
    http://www.telugupalaka.com/jimmy-neutron-boy-genius-telugu-dubbed-2001-720p-bdrip-multi-audio/

    ReplyDelete
  2. Upload this rare collection in Hindi

    https://deadtoonsindia.com/movie-pooh-six-movies-collection-1977-2005-hindi-dubbed-download-720p-hd/

    ReplyDelete