Lost in Translation 2003 x264 720p Esub BluRay Dual Audio English Hindi GOPISAHI


Format                         : Matroska
Format version                 : Version 4 / Version 2
File size                      : 577 MiB
Duration                       : 1 h 41 min
Overall bit rate               : 794 kb/s
Movie name                     : Lost in Translation 2003 GOPISAHI

Video
Format                         : AVC
Format/Info                    : Advanced Video Codec
Codec ID                       : V_MPEG4/ISO/AVC
Duration                       : 1 h 41 min
Bit rate                       : 599 kb/s
Width                          : 1 280 pixels
Height                         : 720 pixels
Display aspect ratio           : 16:9
Frame rate mode                : Constant
Frame rate                     : 23.976 (24000/1001) FPS
Color space                    : YUV
Chroma subsampling             : 4:2:0
Bit depth                      : 8 bits
Scan type                      : Progressive
Bits/(Pixel*Frame)             : 0.027
Stream size                    : 436 MiB (75%)
Title                          : GOPISAHI
Writing library                : x264 core 155 r2901 7d0ff22

Audio #1
Format                         : AAC
Duration                       : 1 h 41 min
Bit rate                       : 96.0 kb/s
Channel(s)                     : 2 channels
Channel positions              : Front: L R
Sampling rate                  : 48.0 kHz
Frame rate                     : 46.875 FPS (1024 SPF)
Compression mode               : Lossy
Delay relative to video        : 27 ms
Stream size                    : 69.8 MiB (12%)
Title                          : GOPISAHI
Language                       : Hindi

Audio #2
Format                         : AAC
Duration                       : 1 h 41 min
Bit rate                       : 96.0 kb/s
Channel(s)                     : 2 channels
Channel positions              : Front: L R
Sampling rate                  : 48.0 kHz
Frame rate                     : 46.875 FPS (1024 SPF)
Compression mode               : Lossy
Stream size                    : 69.8 MiB (12%)
Title                          : GOPISAHI
Language                       : English

Text
Language                       : English

Menu
00:00:00.000                   : en:00:00:00.000
00:07:58.770                   : en:00:07:58.645
00:16:19.270                   : en:00:16:19.270
00:23:33.829                   : en:00:23:33.704
00:34:46.543                   : en:00:34:46.543
00:41:21.896                   : en:00:41:21.771
00:52:28.312                   : en:00:52:28.270
01:02:47.889                   : en:01:02:47.847
01:07:22.956                   : en:01:07:22.914
01:17:01.158                   : en:01:17:01.075
01:23:43.101                   : en:01:23:43.018
01:35:58.544                   : en:01:35:58.378






Post a Comment

0 Comments