Search

Loving 2016 x264 720p Esub BluRay Dual Audio English Hindi GOPISAHI


Format                         : Matroska
Format version                 : Version 4 / Version 2
File size                      : 755 MiB
Duration                       : 2 h 3 min
Overall bit rate               : 858 kb/s
Movie name                     : Loving 2016 GOPISAHI

Video  
Format                         : AVC
Format/Info                    : Advanced Video Codec
Codec ID                       : V_MPEG4/ISO/AVC
Duration                       : 2 h 3 min
Bit rate                       : 599 kb/s
Width                          : 1 280 pixels
Height                         : 534 pixels
Display aspect ratio           : 2.40:1
Frame rate mode                : Constant
Frame rate                     : 23.976 (24000/1001) FPS
Color space                    : YUV
Chroma subsampling             : 4:2:0
Bit depth                      : 8 bits
Scan type                      : Progressive
Bits/(Pixel*Frame)             : 0.037
Stream size                    : 526 MiB (70%)
Title                          : GOPISAHI
Writing library                : x264 core 155 r2901 7d0ff22
Language                       : English

Audio #1
Format                         : AAC
Duration                       : 2 h 3 min
Bit rate                       : 96.0 kb/s
Channel(s)                     : 2 channels
Channel positions              : Front: L R
Sampling rate                  : 48.0 kHz
Frame rate                     : 46.875 FPS (1024 SPF)
Compression mode               : Lossy
Delay relative to video        : 14 ms
Stream size                    : 84.5 MiB (11%)
Title                          : GOPISAHI
Language                       : Hindi

Audio #2
Format                         : AAC
Duration                       : 2 h 3 min
Bit rate                       : 161 kb/s
Channel(s)                     : 2 channels
Channel positions              : Front: L R
Sampling rate                  : 48.0 kHz
Frame rate                     : 46.875 FPS (1024 SPF)
Compression mode               : Lossy
Delay relative to video        : 9 ms
Stream size                    : 141 MiB (19%)
Title                          : GOPISAHI
Language                       : English

Text
Language                       : English

Menu
00:00:00.000                   : en:Chapter 1
00:08:02.774                   : en:Chapter 2
00:13:27.974                   : en:Chapter 3
00:18:32.320                   : en:Chapter 4
00:23:01.964                   : en:Chapter 5
00:28:45.599                   : en:Chapter 6
00:32:45.088                   : en:Chapter 7
00:44:52.315                   : en:Chapter 8
00:50:46.293                   : en:Chapter 9
00:59:36.323                   : en:Chapter 10
01:05:19.082                   : en:Chapter 11
01:10:36.023                   : en:Chapter 12
01:14:58.160                   : en:Chapter 13
01:19:50.619                   : en:Chapter 14
01:29:16.768                   : en:Chapter 15
01:35:16.878                   : en:Chapter 16
01:43:08.599                   : en:Chapter 17
01:47:46.961                   : en:Chapter 18
01:53:03.568                   : en:Chapter 19
01:56:07.419                   : en:Chapter 20




Post a Comment

0 Comments