Mission Impossible Fallout 2018 x264 720p Esub BluRay Dual Audio English Hindi GOPISAHI


Format                         : Matroska
Format version                 : Version 4 / Version 2
File size                      : 939 MiB
Duration                       : 2 h 27 min
Overall bit rate               : 890 kb/s
Movie name                     : Mission Impossible Fallout 2018 GOPISAHI

Video
Format                         : AVC
Codec ID                       : V_MPEG4/ISO/AVC
Duration                       : 2 h 27 min
Bit rate                       : 599 kb/s
Width                          : 1 280 pixels
Height                         : 538 pixels
Display aspect ratio           : 2.40:1
Frame rate mode                : Constant
Frame rate                     : 23.976 (23976/1000) FPS
Color space                    : YUV
Chroma subsampling             : 4:2:0
Bit depth                      : 8 bits
Scan type                      : Progressive
Bits/(Pixel*Frame)             : 0.036
Stream size                    : 631 MiB (67%)
Title                          : GOPISAHI
Writing library                : x264 core 155 r2901 7d0ff22

Audio #1
Format                         : AAC
Duration                       : 2 h 27 min
Bit rate                       : 192 kb/s
Channel(s)                     : 6 channels
Channel positions              : Front: L C R, Side: L R, LFE
Sampling rate                  : 48.0 kHz
Frame rate                     : 46.875 FPS (1024 SPF)
Compression mode               : Lossy
Delay relative to video        : 979 ms
Stream size                    : 202 MiB (22%)
Title                          : GOPISAHI
Language                       : Hindi

Audio #2
Format                         : AAC
Format/Info                    : Advanced Audio Codec
Duration                       : 2 h 27 min
Bit rate                       : 96.0 kb/s
Channel(s)                     : 2 channels
Channel positions              : Front: L R
Sampling rate                  : 48.0 kHz
Frame rate                     : 46.875 FPS (1024 SPF)
Compression mode               : Lossy
Delay relative to video        : -21 ms
Stream size                    : 101 MiB (11%)
Title                          : GOPISAHI
Language                       : English

Text
Language                       : English

Menu
00:00:00.000                   : en:Chapter 1
00:10:37.005                   : en:Chapter 2
00:17:11.414                   : en:Chapter 3
00:26:57.272                   : en:Chapter 4
00:35:56.654                   : en:Chapter 5
00:49:18.406                   : en:Chapter 6
01:00:00.834                   : en:Chapter 7
01:10:23.738                   : en:Chapter 8
01:17:07.284                   : en:Chapter 9
01:28:28.469                   : en:Chapter 10
01:39:09.520                   : en:Chapter 11
01:46:26.566                   : en:Chapter 12
01:55:45.557                   : en:Chapter 13
02:03:10.613                   : en:Chapter 14
02:14:00.300                   : en:Chapter 15
02:19:48.110                   : en:Chapter 16













Post a Comment

1 Comments