Mission Impossible Fallout 2018 x264 720p M Audio English Hindi French Spanish Portuguese Telugu Tamil GOPISAHI



 Mission Impossible Fallout 2018 x264 720p M Audio English Hindi French Spanish Portuguese Telugu Tamil GOPISAHI

Format                         : Matroska
Format version                 : Version 4 / Version 2
File size                      : 1.42 GiB
Duration                       : 2 h 27 min
Overall bit rate               : 1 379 kb/s
Movie name                     : Mission Impossible Fallout 2018 GOPISAHI

Video
Format                         : AVC
Format/Info                    : Advanced Video Codec
Codec ID                       : V_MPEG4/ISO/AVC
Duration                       : 2 h 27 min
Bit rate                       : 699 kb/s
Width                          : 1 280 pixels
Height                         : 534 pixels
Display aspect ratio           : 2.40:1
Frame rate mode                : Constant
Frame rate                     : 23.976 (24000/1001) FPS
Color space                    : YUV
Chroma subsampling             : 4:2:0
Bit depth                      : 8 bits
Scan type                      : Progressive
Bits/(Pixel*Frame)             : 0.043
Stream size                    : 737 MiB (51%)
Title                          : GOPISAHI
Writing library                : x264 core 155 r2901 7d0ff22

Audio #1
Format                         : AAC
Duration                       : 2 h 27 min
Bit rate                       : 96.0 kb/s
Channel(s)                     : 2 channels
Channel positions              : Front: L R
Sampling rate                  : 48.0 kHz
Frame rate                     : 46.875 FPS (1024 SPF)
Compression mode               : Lossy
Delay relative to video        : -21 ms
Stream size                    : 101 MiB (7%)
Title                          : GOPISAHI
Language                       : Hindi

Audio #2
Format                         : AAC
Duration                       : 2 h 27 min
Bit rate                       : 96.0 kb/s
Channel(s)                     : 2 channels
Channel positions              : Front: L R
Sampling rate                  : 48.0 kHz
Frame rate                     : 46.875 FPS (1024 SPF)
Compression mode               : Lossy
Delay relative to video        : -21 ms
Stream size                    : 102 MiB (7%)
Title                          : GOPISAHI
Language                       : English
Default                        : No
Forced                         : No

Audio #3
Format                         : AAC
Duration                       : 2 h 27 min
Bit rate                       : 96.0 kb/s
Channel(s)                     : 2 channels
Channel positions              : Front: L R
Sampling rate                  : 48.0 kHz
Frame rate                     : 46.875 FPS (1024 SPF)
Compression mode               : Lossy
Delay relative to video        : -21 ms
Stream size                    : 101 MiB (7%)
Title                          : GOPISAHI
Language                       : French

Audio #4
Format                         : AAC
Duration                       : 2 h 27 min
Bit rate                       : 96.0 kb/s
Channel(s)                     : 2 channels
Channel positions              : Front: L R
Sampling rate                  : 48.0 kHz
Frame rate                     : 46.875 FPS (1024 SPF)
Compression mode               : Lossy
Delay relative to video        : -21 ms
Stream size                    : 101 MiB (7%)
Title                          : GOPISAHI
Language                       : Spanish

Audio #5
Format                         : AAC
Duration                       : 2 h 27 min
Bit rate                       : 96.0 kb/s
Channel(s)                     : 2 channels
Channel positions              : Front: L R
Sampling rate                  : 48.0 kHz
Frame rate                     : 46.875 FPS (1024 SPF)
Compression mode               : Lossy
Delay relative to video        : -21 ms
Stream size                    : 101 MiB (7%)
Title                          : GOPISAHI
Language                       : Portuguese

Audio #6
Format                         : AAC
Duration                       : 2 h 27 min
Bit rate                       : 96.0 kb/s
Channel(s)                     : 2 channels
Channel positions              : Front: L R
Sampling rate                  : 48.0 kHz
Frame rate                     : 46.875 FPS (1024 SPF)
Compression mode               : Lossy
Delay relative to video        : -21 ms
Stream size                    : 102 MiB (7%)
Title                          : GOPISAHI
Language                       : Telugu

Audio #7
Format                         : AAC
Duration                       : 2 h 27 min
Bit rate                       : 96.0 kb/s
Channel(s)                     : 2 channels
Channel positions              : Front: L R
Sampling rate                  : 48.0 kHz
Frame rate                     : 46.875 FPS (1024 SPF)
Compression mode               : Lossy
Delay relative to video        : -21 ms
Stream size                    : 102 MiB (7%)
Title                          : GOPISAHI
Language                       : Tamil

Text
Language                       : English

Menu
00:00:00.000                   : en:Chapter 1
00:10:37.178                   : en:Chapter 2
00:17:11.614                   : en:Chapter 3
00:26:57.366                   : en:Chapter 4
00:35:56.905                   : en:Chapter 5
00:49:18.414                   : en:Chapter 6
01:00:00.847                   : en:Chapter 7
01:10:24.053                   : en:Chapter 8
01:17:07.540                   : en:Chapter 9
01:28:28.637                   : en:Chapter 10
01:39:09.694                   : en:Chapter 11
01:46:26.547                   : en:Chapter 12
01:55:45.605                   : en:Chapter 13
02:03:10.675                   : en:Chapter 14
02:14:00.908                   : en:Chapter 15
02:19:48.255                   : en:Chapter 16



ALL AUDIOS ORG









Post a Comment

0 Comments