Rang De Basanti 2006 x264 720p Esub BluRay Dual Audio English Hindi GOPISAHI


Format                         : Matroska
Format version                 : Version 4 / Version 2
File size                      : 946 MiB
Duration                       : 2 h 46 min
Overall bit rate               : 794 kb/s
Movie name                     : Rang De Basanti 2006 GOPISAHI

Video
Format                         : AVC
Format/Info                    : Advanced Video Codec
Codec ID                       : V_MPEG4/ISO/AVC
Duration                       : 2 h 46 min
Bit rate                       : 599 kb/s
Width                          : 1 280 pixels
Height                         : 544 pixels
Display aspect ratio           : 2.35:1
Frame rate mode                : Constant
Frame rate                     : 24.000 FPS
Color space                    : YUV
Chroma subsampling             : 4:2:0
Bit depth                      : 8 bits
Scan type                      : Progressive
Bits/(Pixel*Frame)             : 0.036
Stream size                    : 713 MiB (75%)
Title                          : GOPISAHI
Writing library                : x264 core 155 r2901 7d0ff22

Audio #1
Format                         : AAC
Format/Info                    : Advanced Audio Codec
Duration                       : 2 h 46 min
Bit rate                       : 96.0 kb/s
Channel(s)                     : 2 channels
Channel positions              : Front: L R
Sampling rate                  : 48.0 kHz
Frame rate                     : 46.875 FPS (1024 SPF)
Compression mode               : Lossy
Delay relative to video        : 20 ms
Stream size                    : 114 MiB (12%)
Title                          : GOPISAHI
Language                       : Hindi

Audio #2
Format                         : AAC
Duration                       : 2 h 46 min
Bit rate                       : 96.0 kb/s
Channel(s)                     : 2 channels
Channel positions              : Front: L R
Sampling rate                  : 48.0 kHz
Frame rate                     : 46.875 FPS (1024 SPF)
Compression mode               : Lossy
Delay relative to video        : 40 ms
Stream size                    : 115 MiB (12%)
Title                          : GOPISAHI
Language                       : English

TexT
Language                       : English

Menu
00:00:00.000                   : en:Chapter 1
00:08:13.750                   : en:Chapter 2
00:15:48.792                   : en:Chapter 3
00:20:36.292                   : en:Chapter 4
00:25:34.000                   : en:Chapter 5
00:31:38.958                   : en:Chapter 6
00:43:05.208                   : en:Chapter 7
00:44:31.083                   : en:Chapter 8
00:47:56.750                   : en:Chapter 9
00:56:05.875                   : en:Chapter 10
00:57:31.833                   : en:Chapter 11
01:03:12.125                   : en:Chapter 12
01:08:10.375                   : en:Chapter 13
01:14:14.958                   : en:Chapter 14
01:17:48.917                   : en:Chapter 15
01:21:29.667                   : en:Chapter 16
01:27:42.792                   : en:Chapter 17
01:34:40.000                   : en:Chapter 18
01:37:08.792                   : en:Chapter 19
01:40:10.792                   : en:Chapter 20
01:43:54.375                   : en:Chapter 21
01:45:54.333                   : en:Chapter 22
01:50:26.125                   : en:Chapter 23
01:53:58.875                   : en:Chapter 24
01:56:57.083                   : en:Chapter 25
02:06:20.167                   : en:Chapter 26
02:12:37.583                   : en:Chapter 27
02:22:30.833                   : en:Chapter 28
02:24:57.333                   : en:Chapter 29
02:27:37.208                   : en:Chapter 30
02:40:57.542                   : en:Chapter 31



Post a Comment

0 Comments