Search

The Last Of The Mohicans 1992 720p BluRay Dual Audio English Hindi GOPISAHI


Format                         : Matroska
Format version                 : Version 4 / Version 2
File size                      : 888 MiB
Duration                       : 1 h 54 min
Overall bit rate               : 1 084 kb/s
Movie name                     : The Last Of The Mohicans 1992 GOPISAHI

Video
Format                         : AVC
Format/Info                    : Advanced Video Codec
Codec ID                       : V_MPEG4/ISO/AVC
Duration                       : 1 h 54 min
Bit rate                       : 900 kb/s
Width                          : 1 280 pixels
Height                         : 534 pixels
Display aspect ratio           : 2.40:1
Frame rate mode                : Constant
Frame rate                     : 23.976 (24000/1001) FPS
Color space                    : YUV
Chroma subsampling             : 4:2:0
Bit depth                      : 8 bits
Scan type                      : Progressive
Bits/(Pixel*Frame)             : 0.055
Stream size                    : 729 MiB (82%)
Title                          : GOPISAHI
Writing library                : x264 core 142 r2479 dd79a61

Audio #1
Format                         : AAC
Duration                       : 1 h 54 min
Bit rate                       : 96.0 kb/s
Channel(s)                     : 2 channels
Channel positions              : Front: L R
Sampling rate                  : 48.0 kHz
Frame rate                     : 46.875 FPS (1024 SPF)
Compression mode               : Lossy
Delay relative to video        : -83 ms
Stream size                    : 78.7 MiB (9%)
Title                          : GOPISAHI
Language                       : Hindi

Audio #2
Format                         : AAC
Duration                       : 1 h 54 min
Bit rate                       : 96.0 kb/s
Channel(s)                     : 2 channels
Channel positions              : Front: L R
Sampling rate                  : 48.0 kHz
Frame rate                     : 46.875 FPS (1024 SPF)
Compression mode               : Lossy
Delay relative to video        : -83 ms
Stream size                    : 78.7 MiB (9%)
Title                          : GOPISAHI
Language                       : English




Post a Comment

2 Comments

  1. http://www.telugupalaka.com/atlantis-the-lost-empire-telugu-dubbed-2001-720p-bdrip-multi-audio/

    ReplyDelete
  2. https://deadtoonsindia.com/movie-pooh-six-movies-collection-1977-2005-hindi-dubbed-download-720p-hd/

    ReplyDelete