The Shaolin Temple 1982 x264 720p Esub BluRay Dual Audio CHI Hindi GOPISAHI


Format                         : Matroska
Format version                 : Version 4 / Version 2
File size                      : 1 017 MiB
Duration                       : 1 h 39 min
Overall bit rate mode          : Variable
Overall bit rate               : 1 423 kb/s

Video
Format                         : AVC
Format/Info                    : Advanced Video Codec
Codec ID                       : V_MPEG4/ISO/AVC
Duration                       : 1 h 39 min
Bit rate mode                  : Variable
Bit rate                       : 1 099 kb/s
Maximum bit rate               : 50.0 Mb/s
Width                          : 1 280 pixels
Height                         : 534 pixels
Display aspect ratio           : 2.40:1
Frame rate mode                : Constant
Frame rate                     : 23.976 (24000/1001) FPS
Color space                    : YUV
Chroma subsampling             : 4:2:0
Bit depth                      : 8 bits
Scan type                      : Progressive
Bits/(Pixel*Frame)             : 0.067
Stream size                    : 785 MiB (77%)

Audio #1
Format                         : AAC
Duration                       : 1 h 39 min
Bit rate                       : 160 kb/s
Channel(s)                     : 2 channels
Channel positions              : Front: L R
Sampling rate                  : 48.0 kHz
Frame rate                     : 46.875 FPS (1024 SPF)
Compression mode               : Lossy
Stream size                    : 115 MiB (11%)
Title                          : GOPISAHI
Language                       : Hindi

Audio #2
Format                         : AAC
Duration                       : 1 h 39 min
Bit rate                       : 161 kb/s
Channel(s)                     : 2 channels
Channel positions              : Front: L R
Sampling rate                  : 48.0 kHz
Frame rate                     : 46.875 FPS (1024 SPF)
Compression mode               : Lossy
Stream size                    : 115 MiB (11%)
Title                          : GOPISAHI
Language                       : Chinese

Text #1
ID                             : 2

Text #2
Language                       : English















Post a Comment

1 Comments

  1. George of the jungle duology
    http://www.telugupalaka.com/george-of-the-jungle-telugu-dubbed-1997-720p-web-dl-multi-audio/
    http://www.telugupalaka.com/george-of-the-jungle-2-telugu-dubbed-2003-720p-web-dl-multi-audio/

    ReplyDelete