Chestnut Hero Of Central Park 2004 720P Telugu Hindi Marathi English GOPISAHI


Format                         : Matroska
Format version                 : Version 4 / Version 2
File size                      : 606 MiB
Duration                       : 1 h 22 min
Overall bit rate               : 1 024 kb/s
Movie name                     : Chestnut Hero Of Central Park 2004 GOPISAHI

Video
Format                         : AVC
Codec ID                       : V_MPEG4/ISO/AVC
Duration                       : 1 h 22 min
Bit rate                       : 699 kb/s
Width                          : 1 276 pixels
Height                         : 720 pixels
Display aspect ratio           : 16:9
Frame rate mode                : Constant
Frame rate                     : 25.000 FPS
Stream size                    : 414 MiB (68%)
Title                          : GOPISAHI
Writing library                : x264 core 155 r2901 7d0ff22

Audio #1
Format                         : AAC
Duration                       : 1 h 22 min
Bit rate                       : 96.0 kb/s
Channel(s)                     : 2 channels
Channel positions              : Front: L R
Sampling rate                  : 48.0 kHz
Frame rate                     : 46.875 FPS (1024 SPF)
Compression mode               : Lossy
Delay relative to video        : -21 ms
Stream size                    : 56.9 MiB (9%)
Title                          : GOPISAHI
Language                       : Hindi

Audio #2
Format                         : AAC
Duration                       : 1 h 22 min
Bit rate                       : 96.0 kb/s
Channel(s)                     : 2 channels
Channel positions              : Front: L R
Sampling rate                  : 48.0 kHz
Frame rate                     : 46.875 FPS (1024 SPF)
Compression mode               : Lossy
Delay relative to video        : -21 ms
Stream size                    : 56.9 MiB (9%)
Title                          : GOPISAHI
Language                       : English

Audio #3
Format                         : AAC
Duration                       : 1 h 22 min
Bit rate                       : 64.3 kb/s
Channel(s)                     : 2 channels
Channel positions              : Front: L R
Sampling rate                  : 48.0 kHz
Frame rate                     : 46.875 FPS (1024 SPF)
Compression mode               : Lossy
Delay relative to video        : -21 ms
Stream size                    : 38.1 MiB (6%)
Title                          : GOPISAHI
Language                       : Telugu

Audio #4
Format                         : AAC
Duration                       : 1 h 22 min
Bit rate                       : 64.2 kb/s
Channel(s)                     : 2 channels
Channel positions              : Front: L R
Sampling rate                  : 48.0 kHz
Frame rate                     : 46.875 FPS (1024 SPF)
Compression mode               : Lossy
Delay relative to video        : -21 ms
Stream size                    : 38.0 MiB (6%)
Title                          : GOPISAHI
Language                       : Marathi






Post a Comment

1 Comments