Search

Dassehra 2018 x264 720p HD Esub Hindi GOPISAHI

Format                         : Matroska
Format version                 : Version 4 / Version 2
File size                      : 611 MiB
Duration                       : 1 h 47 min
Overall bit rate               : 797 kb/s
Movie name                     : Dassehra 2018 GOPISAHI

Video
Format                         : AVC
Codec ID                       : V_MPEG4/ISO/AVC
Duration                       : 1 h 47 min
Bit rate                       : 699 kb/s
Width                          : 1 280 pixels
Height                         : 544 pixels
Display aspect ratio           : 2.35:1
Frame rate mode                : Constant
Frame rate                     : 24.000 FPS
Color space                    : YUV
Chroma subsampling             : 4:2:0
Bit depth                      : 8 bits
Scan type                      : Progressive
Bits/(Pixel*Frame)             : 0.042
Stream size                    : 536 MiB (88%)
Title                          : GOPISAHI
Writing library                : x264 core 155 r2901 7d0ff22

Audio
Format                         : AAC
Duration                       : 1 h 47 min
Bit rate                       : 96.0 kb/s
Channel(s)                     : 2 channels
Channel positions              : Front: L R
Sampling rate                  : 48.0 kHz
Frame rate                     : 46.875 FPS (1024 SPF)
Compression mode               : Lossy
Delay relative to video        : -21 ms
Stream size                    : 73.4 MiB (12%)
Title                          : GOPISAHI
Language                       : Hindi

Text
Language                       : English




TORRENT

MAGNET

https://linksclub.biz/drive/download.php?id=5a26fa18137d48d03e6c

https://linkstaker.pw/drive/download.php?id=0e4a5356aae194fbc3eb

https://uploadfiles.pw/3eadc4b9b73b51e8

https://megaup.net/6tpi/Dassehra_2018_x264_720p_HD_Esub_Hindi_GOPISAHI.mkv

https://uptobox.com/inzzcwy3r0qu

770 MB 720P

334 MB

JJJ

Post a Comment

0 Comments