Search This Blog

Extraordinary Mission 2017 x264 720p Esub BluRay Dual Audio English Hindi GOPISAHI

Format                         : Matroska
Format version                 : Version 4 / Version 2
File size                      : 777 MiB
Duration                       : 2 h 1 min
Overall bit rate               : 894 kb/s
Movie name                     : Extraordinary Mission 2017 GOPISAHI

Video
Format                         : AVC
Format/Info                    : Advanced Video Codec
Codec ID                       : V_MPEG4/ISO/AVC
Duration                       : 2 h 1 min
Bit rate                       : 699 kb/s
Width                          : 1 280 pixels
Height                         : 536 pixels
Display aspect ratio           : 2.40:1
Frame rate mode                : Constant
Frame rate                     : 24.000 FPS
Color space                    : YUV
Chroma subsampling             : 4:2:0
Bit depth                      : 8 bits
Scan type                      : Progressive
Bits/(Pixel*Frame)             : 0.042
Stream size                    : 607 MiB (78%)
Title                          : GOPISAHI
Writing library                : x264 core 155 r2901 7d0ff22

Audio #1
Format                         : AAC
Duration                       : 2 h 1 min
Bit rate                       : 96.0 kb/s
Channel(s)                     : 2 channels
Channel positions              : Front: L R
Sampling rate                  : 48.0 kHz
Frame rate                     : 46.875 FPS (1024 SPF)
Compression mode               : Lossy
Delay relative to video        : -21 ms
Stream size                    : 83.5 MiB (11%)
Title                          : GOPISAHI
Language                       : Hindi

Audio #2
Format                         : AAC
Duration                       : 2 h 1 min
Bit rate                       : 96.0 kb/s
Channel(s)                     : 2 channels
Channel positions              : Front: L R
Sampling rate                  : 48.0 kHz
Frame rate                     : 46.875 FPS (1024 SPF)
Compression mode               : Lossy
Delay relative to video        : 9 ms
Stream size                    : 83.5 MiB (11%)
Title                          : GOPISAHI
Language                       : Chinese

Text
Language                       : English

Menu
00:00:00.000                   : en:00:00:00.000
00:07:57.250                   : en:00:07:57.125
00:11:52.458                   : en:00:11:52.375
00:15:57.417                   : en:00:15:57.333
00:19:48.083                   : en:00:19:47.958
00:28:51.375                   : en:00:28:51.250
00:34:15.750                   : en:00:34:15.667
00:43:11.000                   : en:00:43:11.000
00:49:04.125                   : en:00:49:04.125
00:56:05.792                   : en:00:56:05.667
01:00:42.542                   : en:01:00:42.542
01:05:03.792                   : en:01:05:03.667
01:09:07.583                   : en:01:09:07.458
01:14:51.250                   : en:01:14:51.208
01:20:33.458                   : en:01:20:33.375
01:25:51.750                   : en:01:25:51.667
01:30:10.417                   : en:01:30:10.292
01:35:31.458                   : en:01:35:31.333
01:42:54.750                   : en:01:42:54.625
01:54:06.417                   : en:01:54:06.292





HHHHH

Post a Comment

0 Comments