Search

Mr. Deeds 2002 x264 720p Esub BluRay Dual Audio English Hindi GOPISAHI


Format                         : Matroska
Format version                 : Version 4 / Version 2
File size                      : 618 MiB
Duration                       : 1 h 36 min
Overall bit rate               : 894 kb/s
Movie name                     : Mr. Deeds 2002 GOPISAHI

Video
Format                         : AVC
Format/Info                    : Advanced Video Codec
Codec ID                       : V_MPEG4/ISO/AVC
Duration                       : 1 h 36 min
Bit rate                       : 699 kb/s
Width                          : 1 280 pixels
Height                         : 692 pixels
Display aspect ratio           : 1.85:1
Frame rate mode                : Constant
Frame rate                     : 23.976 (24000/1001) FPS
Color space                    : YUV
Chroma subsampling             : 4:2:0
Bit depth                      : 8 bits
Scan type                      : Progressive
Bits/(Pixel*Frame)             : 0.033
Stream size                    : 483 MiB (78%)
Title                          : GOPISAHI
Writing library                : x264 core 155 r2901 7d0ff22

Audio #1
Format                         : AAC
Duration                       : 1 h 36 min
Bit rate                       : 96.0 kb/s
Channel(s)                     : 2 channels
Channel positions              : Front: L R
Sampling rate                  : 48.0 kHz
Frame rate                     : 46.875 FPS (1024 SPF)
Compression mode               : Lossy
Delay relative to video        : -21 ms
Stream size                    : 66.4 MiB (11%)
Title                          : GOPISAHI
Language                       : Hindi

Audio #2
Format                         : AAC
Duration                       : 1 h 36 min
Bit rate                       : 96.0 kb/s
Channel(s)                     : 2 channels
Channel positions              : Front: L R
Sampling rate                  : 48.0 kHz
Frame rate                     : 46.875 FPS (1024 SPF)
Compression mode               : Lossy
Delay relative to video        : 9 ms
Stream size                    : 66.6 MiB (11%)
Title                          : GOPISAHI
Language                       : English

Text
Language                       : English

Menu
00:00:00.000                   : en:00:00:00.000
00:05:49.432                   : en:00:05:49.432
00:09:30.487                   : en:00:09:30.487
00:18:15.344                   : en:00:18:15.344
00:23:24.987                   : en:00:23:24.987
00:26:52.402                   : en:00:26:52.402
00:32:12.556                   : en:00:32:12.556
00:36:16.341                   : en:00:36:16.341
00:44:14.110                   : en:00:44:14.068
00:47:09.368                   : en:00:47:09.368
00:56:20.377                   : en:00:56:20.377
00:59:02.039                   : en:00:59:02.038
01:07:05.813                   : en:01:07:05.813
01:12:37.812                   : en:01:12:37.812
01:19:25.469                   : en:01:19:25.469
01:23:47.022                   : en:01:23:46.939





Post a Comment

0 Comments