Search

Ranjha Refugee 2018 x264 720p SD Punjabi GOPISAHI


Format                         : Matroska
Format version                 : Version 4 / Version 2
File size                      : 607 MiB
Duration                       : 1 h 46 min
Overall bit rate               : 794 kb/s
Movie name                     : Ranjha Refugee 2018 GOPISAHI

Video
Format                         : AVC
Format/Info                    : Advanced Video Codec
Codec ID                       : V_MPEG4/ISO/AVC
Duration                       : 1 h 46 min
Bit rate                       : 699 kb/s
Width                          : 1 280 pixels
Height                         : 544 pixels
Display aspect ratio           : 2.35:1
Frame rate mode                : Constant
Frame rate                     : 25.000 FPS
Stream size                    : 534 MiB (88%)
Title                          : GOPISAHI
Writing library                : x264 core 155 r2901 7d0ff22

Audio
Format                         : AAC
Duration                       : 1 h 46 min
Bit rate                       : 93.2 kb/s
Channel(s)                     : 2 channels
Channel positions              : Front: L R
Sampling rate                  : 48.0 kHz
Frame rate                     : 46.875 FPS (1024 SPF)
Compression mode               : Lossy
Delay relative to video        : -22 ms
Stream size                    : 71.2 MiB (12%)
Title                          : GOPISAHI
Language                       : Panjabi





Post a Comment

0 Comments