Spymate 2006 720P Telugu Tamil Hindi Marathi English GOPISAHI

Format                         : Matroska
Format version                 : Version 4 / Version 2
File size                      : 628 MiB
Duration                       : 1 h 20 min
Overall bit rate               : 1 089 kb/s

Video
Format                         : AVC
Format/Info                    : Advanced Video Codec
Codec ID                       : V_MPEG4/ISO/AVC
Duration                       : 1 h 20 min
Bit rate                       : 699 kb/s
Width                          : 1 280 pixels
Height                         : 720 pixels
Display aspect ratio           : 16:9
Frame rate mode                : Constant
Frame rate                     : 25.000 FPS
Color space                    : YUV
Chroma subsampling             : 4:2:0
Bit depth                      : 8 bits
Scan type                      : Progressive
Bits/(Pixel*Frame)             : 0.030
Stream size                    : 403 MiB (64%)
Title                          : GOPISAHI
Writing library                : x264 core 155 r2901 7d0ff22

Audio #1
Format                         : AAC
Duration                       : 1 h 20 min
Bit rate                       : 96.0 kb/s
Channel(s)                     : 2 channels
Channel positions              : Front: L R
Sampling rate                  : 48.0 kHz
Frame rate                     : 46.875 FPS (1024 SPF)
Compression mode               : Lossy
Delay relative to video        : -21 ms
Stream size                    : 55.2 MiB (9%)
Title                          : GOPISAHI
Language                       : Hindi

Audio #2
Format                         : AAC
Duration                       : 1 h 20 min
Bit rate                       : 96.0 kb/s
Channel(s)                     : 2 channels
Channel positions              : Front: L R
Sampling rate                  : 48.0 kHz
Frame rate                     : 46.875 FPS (1024 SPF)
Compression mode               : Lossy
Delay relative to video        : -21 ms
Stream size                    : 55.4 MiB (9%)
Title                          : GOPISAHI
Language                       : English

Audio #3
Format                         : AAC
Duration                       : 1 h 20 min
Bit rate                       : 64.3 kb/s
Channel(s)                     : 2 channels
Channel positions              : Front: L R
Sampling rate                  : 48.0 kHz
Frame rate                     : 46.875 FPS (1024 SPF)
Compression mode               : Lossy
Delay relative to video        : -21 ms
Stream size                    : 37.1 MiB (6%)
Title                          : GOPISAHI
Language                       : Telugu

Audio #4
Format                         : AAC
Duration                       : 1 h 20 min
Bit rate                       : 64.2 kb/s
Channel(s)                     : 2 channels
Channel positions              : Front: L R
Sampling rate                  : 48.0 kHz
Frame rate                     : 46.875 FPS (1024 SPF)
Compression mode               : Lossy
Delay relative to video        : -21 ms
Stream size                    : 37.1 MiB (6%)
Title                          : GOPISAHI
Language                       : Tamil

Audio #5
Format                         : AAC
Duration                       : 1 h 20 min
Bit rate                       : 64.2 kb/s
Channel(s)                     : 2 channels
Channel positions              : Front: L R
Sampling rate                  : 48.0 kHz
Frame rate                     : 46.875 FPS (1024 SPF)
Compression mode               : Lossy
Delay relative to video        : -21 ms
Stream size                    : 37.1 MiB (6%)
Title                          : GOPISAHI
Language                       : Marathi






Post a Comment

2 Comments

  1. Dumbo 1941 with DD5.1 audio
    https://yadi.sk/i/03qg0D28B_reFQ

    ReplyDelete
  2. Little nicky in Webdl first it available in HDTV rip

    ReplyDelete