The Darjeeling Limited 2007 x264 1080p Esub BluRay 5.1 English Hindi GOPISAHI


Format                         : Matroska
Format version                 : Version 4 / Version 2
File size                      : 976 MiB
Duration                       : 1 h 31 min
Overall bit rate               : 1 487 kb/s
Movie name                     : The Darjeeling Limited 2007 GOPISAHI

Video
Format                         : AVC
Format/Info                    : Advanced Video Codec
Codec ID                       : V_MPEG4/ISO/AVC
Duration                       : 1 h 31 min
Bit rate                       : 1 100 kb/s
Width                          : 1 920 pixels
Height                         : 800 pixels
Display aspect ratio           : 2.40:1
Frame rate mode                : Constant
Frame rate                     : 23.976 (24000/1001) FPS
Color space                    : YUV
Chroma subsampling             : 4:2:0
Bit depth                      : 8 bits
Scan type                      : Progressive
Bits/(Pixel*Frame)             : 0.030
Stream size                    : 722 MiB (74%)
Title                          : GOPISAHI
Writing library                : x264 core 155 r2901 7d0ff22

Audio #1
Format                         : AAC
Duration                       : 1 h 31 min
Bit rate                       : 192 kb/s
Channel(s)                     : 6 channels
Channel positions              : Front: L C R, Side: L R, LFE
Sampling rate                  : 48.0 kHz
Frame rate                     : 46.875 FPS (1024 SPF)
Compression mode               : Lossy
Delay relative to video        : 14 s 880 ms
Stream size                    : 126 MiB (13%)
Title                          : GOPISAHI
Language                       : Hindi

Audio #2
Format                         : AAC
Duration                       : 1 h 31 min
Bit rate                       : 192 kb/s
Channel(s)                     : 6 channels
Channel positions              : Front: L C R, Side: L R, LFE
Sampling rate                  : 48.0 kHz
Frame rate                     : 46.875 FPS (1024 SPF)
Compression mode               : Lossy
Delay relative to video        : -21 ms
Stream size                    : 126 MiB (13%)
Title                          : GOPISAHI
Language                       : English

Text
Language                       : English

Menu
00:00:00.000                   : en:Chapter 1
00:03:36.675                   : en:Chapter 2
00:07:18.605                   : en:Chapter 3
00:10:10.610                   : en:Chapter 4
00:13:49.287                   : en:Chapter 5
00:15:49.157                   : en:Chapter 6
00:19:53.901                   : en:Chapter 7
00:22:17.503                   : en:Chapter 8
00:28:04.975                   : en:Chapter 9
00:34:03.208                   : en:Chapter 10
00:38:10.580                   : en:Chapter 11
00:42:01.144                   : en:Chapter 12
00:48:42.211                   : en:Chapter 13
00:53:54.565                   : en:Chapter 14
00:57:02.044                   : en:Chapter 15
01:02:32.958                   : en:Chapter 16
01:06:10.717                   : en:Chapter 17
01:13:14.849                   : en:Chapter 18
01:20:07.136                   : en:Chapter 19
01:23:49.066                   : en:Chapter 20





Post a Comment

0 Comments