The Nun 2018 1080p 5.1 Hindi English French Spanish Portuguese GOPISAHI

Format                         : Matroska
Format version                 : Version 4 / Version 2
File size                      : 1.39 GiB
Duration                       : 1 h 36 min
Overall bit rate               : 2 065 kb/s
Movie name                     : The Nun 2018 GOPISAHI

Video
Format                         : AVC
Format/Info                    : Advanced Video Codec
Codec ID                       : V_MPEG4/ISO/AVC
Duration                       : 1 h 36 min
Bit rate                       : 1 100 kb/s
Width                          : 1 894 pixels
Height                         : 800 pixels
Display aspect ratio           : 2.35:1
Frame rate mode                : Constant
Frame rate                     : 23.976 (24000/1001) FPS
Color space                    : YUV
Chroma subsampling             : 4:2:0
Bit depth                      : 8 bits
Scan type                      : Progressive
Bits/(Pixel*Frame)             : 0.030
Stream size                    : 760 MiB (53%)
Title                          : GOPISAHI
Writing library                : x264 core 155 r2901 7d0ff22

Audio #1
Format                         : AAC
Duration                       : 1 h 36 min
Bit rate                       : 192 kb/s
Channel(s)                     : 6 channels
Channel positions              : Front: L C R, Side: L R, LFE
Sampling rate                  : 48.0 kHz
Frame rate                     : 46.875 FPS (1024 SPF)
Compression mode               : Lossy
Delay relative to video        : -21 ms
Stream size                    : 133 MiB (9%)
Title                          : GOPISAHI
Language                       : Hindi

Audio #2
Format                         : AAC
Duration                       : 1 h 36 min
Bit rate                       : 192 kb/s
Channel(s)                     : 6 channels
Channel positions              : Front: L C R, Side: L R, LFE
Sampling rate                  : 48.0 kHz
Frame rate                     : 46.875 FPS (1024 SPF)
Compression mode               : Lossy
Delay relative to video        : -21 ms
Stream size                    : 133 MiB (9%)
Title                          : GOPISAHI
Language                       : English

Audio #3
Format                         : AAC
Duration                       : 1 h 36 min
Bit rate                       : 192 kb/s
Channel(s)                     : 6 channels
Channel positions              : Front: L C R, Side: L R, LFE
Sampling rate                  : 48.0 kHz
Frame rate                     : 46.875 FPS (1024 SPF)
Compression mode               : Lossy
Delay relative to video        : -21 ms
Stream size                    : 133 MiB (9%)
Title                          : GOPISAHI
Language                       : French

Audio #4
Format                         : AAC
Duration                       : 1 h 36 min
Bit rate                       : 192 kb/s
Channel(s)                     : 6 channels
Channel positions              : Front: L C R, Side: L R, LFE
Sampling rate                  : 48.0 kHz
Frame rate                     : 46.875 FPS (1024 SPF)
Compression mode               : Lossy
Delay relative to video        : -21 ms
Stream size                    : 133 MiB (9%)
Title                          : GOPISAHI
Language                       : Spanish

Audio #5
Format                         : AAC
Duration                       : 1 h 36 min
Bit rate                       : 192 kb/s
Channel(s)                     : 6 channels
Channel positions              : Front: L C R, Side: L R, LFE
Sampling rate                  : 48.0 kHz
Frame rate                     : 46.875 FPS (1024 SPF)
Compression mode               : Lossy
Delay relative to video        : -21 ms
Stream size                    : 133 MiB (9%)
Title                          : GOPISAHI
Language                       : Portuguese

Text
Language                       : English

Menu
00:00:00.000                   : en:Chapter 1
00:08:42.981                   : en:Chapter 2
00:17:55.074                   : en:Chapter 3
00:29:17.506                   : en:Chapter 4
00:38:05.116                   : en:Chapter 5
00:48:49.802                   : en:Chapter 6
00:58:49.401                   : en:Chapter 7
01:09:16.986                   : en:Chapter 8
01:18:14.732                   : en:Chapter 9
01:24:18.637                   : en:Chapter 10
01:32:30.587                   : en:Chapter 11







LINKS TOMORROW

Post a Comment

0 Comments