The Nun 2018 x264 720p Esub BluRay Dual Audio English Hindi GOPISAHI


Format                         : Matroska
Format version                 : Version 4 / Version 2
File size                      : 618 MiB
Duration                       : 1 h 36 min
Overall bit rate               : 894 kb/s

Video
Format                         : AVC
Format/Info                    : Advanced Video Codec
Codec ID                       : V_MPEG4/ISO/AVC
Duration                       : 1 h 36 min
Bit rate                       : 699 kb/s
Width                          : 1 280 pixels
Height                         : 536 pixels
Display aspect ratio           : 2.40:1
Frame rate mode                : Constant
Frame rate                     : 23.976 (24000/1001) FPS
Stream size                    : 483 MiB (78%)
Title                          : GOPISAHI
Writing library                : x264 core 155 r2901 7d0ff22

Audio #1
Format                         : AAC
Duration                       : 1 h 36 min
Bit rate                       : 96.0 kb/s
Channel(s)                     : 2 channels
Channel positions              : Front: L R
Sampling rate                  : 48.0 kHz
Frame rate                     : 46.875 FPS (1024 SPF)
Compression mode               : Lossy
Delay relative to video        : -21 ms
Stream size                    : 66.3 MiB (11%)
Title                          : GOPISAHI
Language                       : Hindi

Audio #2
Format                         : AAC
Duration                       : 1 h 36 min
Bit rate                       : 96.0 kb/s
Channel(s)                     : 2 channels
Channel positions              : Front: L R
Sampling rate                  : 48.0 kHz
Frame rate                     : 46.875 FPS (1024 SPF)
Compression mode               : Lossy
Delay relative to video        : -21 ms
Stream size                    : 66.4 MiB (11%)
Title                          : GOPISAHI
Language                       : English

Text
Language                       : English

Menu
00:00:00.000                   : en:Chapter 1
00:08:42.772                   : en:Chapter 2
00:17:55.074                   : en:Chapter 3
00:29:17.506                   : en:Chapter 4
00:38:05.033                   : en:Chapter 5
00:48:49.802                   : en:Chapter 6
00:58:49.192                   : en:Chapter 7
01:09:16.944                   : en:Chapter 8
01:18:14.565                   : en:Chapter 9
01:24:18.637                   : en:Chapter 10
01:32:30.295                   : en:Chapter 11






Post a Comment

1 Comments

  1. https://deadtoonsindia.com/movie-tintin-and-the-temple-of-the-sun-1969-hindi-dubbed-download-720p-hd/

    ReplyDelete