Search

Transformers Pentalogy x264 720p Esub BluRay Dual Audio English Hindi GOPISAHI


Format                         : Matroska
Format version                 : Version 4 / Version 2
File size                      : 1.10 GiBa
Duration                       : 2 h 29 min
Overall bit rate               : 1 052 kb/s
Movie name                     : Transformers Revenge Of The Fallen 2009 GOPISAHI

Video
Format                         : AVC
Format/Info                    : Advanced Video Codec
Codec ID                       : V_MPEG4/ISO/AVC
Duration                       : 2 h 29 min
Bit rate                       : 857 kb/s
Width                          : 1 280 pixels
Height                         : 528 pixels
Display aspect ratio           : 2.40:1
Frame rate mode                : Constant
Frame rate                     : 23.976 (24000/1001) FPS
Color space                    : YUV
Chroma subsampling             : 4:2:0
Bit depth                      : 8 bits
Scan type                      : Progressive
Bits/(Pixel*Frame)             : 0.053
Stream size                    : 918 MiB (81%)
Title                          : GOPISAHI
Writing library                : x264 core 125 r2200 999b753

Audio #1
Format                         : AAC
Duration                       : 2 h 29 min
Bit rate                       : 96.0 kb/s
Channel(s)                     : 2 channels
Channel positions              : Front: L R
Sampling rate                  : 48.0 kHz
Frame rate                     : 46.875 FPS (1024 SPF)
Compression mode               : Lossy
Delay relative to video        : 917 ms
Stream size                    : 103 MiB (9%)
Title                          : GOPISAHI
Language                       : Hindi

Audio #2
Format                         : AAC
Duration                       : 2 h 29 min
Bit rate                       : 96.0 kb/s
Channel(s)                     : 2 channels
Channel positions              : Front: L R
Sampling rate                  : 48.0 kHz
Frame rate                     : 46.875 FPS (1024 SPF)
Compression mode               : Lossy
Delay relative to video        : -83 ms
Stream size                    : 103 MiB (9%)
Title                          : GOPISAHI
Language                       : English

Text
Language                       : English






MAGNET

5.44 GB

Transformers Pentalogy x264 720p Esub BluRay Dual Audio English Hindi GOPISAHI
  • Transformers Dark Of The Moon 2011 GOPISAHI.mkv (1,007.0 MB)
  • Transformers Age Of Extinction 2014 GOPISAHI.mkv (1.1 GB)
  • Transformers 2007 GOPISAHI.mkv (1.1 GB)
  • Transformers Revenge Of The Fallen 2009 GOPISAHI.mkv (1.1 GB)
  • Transformers The Last Knight 2017 GOPISAHI.mkv (1.2 GB)


USE MEGA SINGLE MOVIE DWONLOAD AND ZIP

 https://mega.nz/#F!1Y83jYhC!ON3YDxsLrBf41aQeoKbokw

l



2009




P





2011







2014







2017

Post a Comment

0 Comments