Search

Basic Instinct Dual Logy x264 720p Esub BluRay Dual Audio Hindi GOPISAHI

Format                         : Matroska
Format version                 : Version 4 / Version 2
File size                      : 820 MiB
Duration                       : 2 h 8 min
Overall bit rate               : 894 kb/s
Movie name                     : Basic Instinct 1992 GOPISAHI

Video
Format                         : AVC
Format/Info                    : Advanced Video Codec
Codec ID                       : V_MPEG4/ISO/AVC
Duration                       : 2 h 8 min
Bit rate                       : 699 kb/s
Width                          : 1 280 pixels
Height                         : 544 pixels
Display aspect ratio           : 2.35:1
Frame rate mode                : Constant
Frame rate                     : 23.976 (24000/1001) FPS
Color space                    : YUV
Chroma subsampling             : 4:2:0
Bit depth                      : 8 bits
Scan type                      : Progressive
Bits/(Pixel*Frame)             : 0.042
Stream size                    : 641 MiB (78%)
Title                          : GOPISAHI
Writing library                : x264 core 155 r2901 7d0ff22

Audio #1
Format                         : AAC
Duration                       : 2 h 8 min
Bit rate                       : 96.0 kb/s
Channel(s)                     : 2 channels
Channel positions              : Front: L R
Sampling rate                  : 48.0 kHz
Frame rate                     : 46.875 FPS (1024 SPF)
Compression mode               : Lossy
Delay relative to video        : -21 ms
Stream size                    : 88.3 MiB (11%)
Title                          : GOPISAHI
Language                       : Hindi

Audio #2
Format                         : AAC
Duration                       : 2 h 8 min
Bit rate                       : 96.0 kb/s
Channel(s)                     : 2 channels
Channel positions              : Front: L R
Sampling rate                  : 48.0 kHz
Frame rate                     : 46.875 FPS (1024 SPF)
Compression mode               : Lossy
Delay relative to video        : -21 ms
Stream size                    : 88.2 MiB (11%)
Title                          : GOPISAHI
Language                       : English

Text
ID                             : 4
Language                       : English


TOTAL SIZE  1.51 GB

 Basic Instinct Dual Logy x264 720p Esub BluRay Dual Audio Hindi GOPISAHII
  • Basic Instinct 2006 GOPISAHI.mkv (726.8 MB)
  • Basic Instinct 1992 GOPISAHI.mkv (820.4 MB)








 2006




Post a Comment

3 Comments

  1. Sir Se7en 1995 Dual Audio 720p upload plz tommorow

    ReplyDelete
  2. Sir Linkshub.com & Linkshub.me is not working plz fix it

    ReplyDelete
    Replies
    1. hello witch movie you got problem paste link

      Delete