Search

Escape From L.A 1996 x264 720p Esub BluRay 5.1 Dual Audio English Hindi GOPISAHI


Format                         : Matroska
Format version                 : Version 4 / Version 2
File size                      : 782 MiB
Duration                       : 1 h 40 min
Overall bit rate               : 1 085 kb/s
Movie name                     : Escape From L.A 1996 GOPISAHI

Video
Format                         : AVC
Format/Info                    : Advanced Video Codec
Codec ID                       : V_MPEG4/ISO/AVC
Duration                       : 1 h 40 min
Bit rate                       : 699 kb/s
Width                          : 1 280 pixels
Height                         : 544 pixels
Display aspect ratio           : 2.35:1
Frame rate mode                : Constant
Frame rate                     : 23.976 (24000/1001) FPS
Color space                    : YUV
Chroma subsampling             : 4:2:0
Bit depth                      : 8 bits
Scan type                      : Progressive
Bits/(Pixel*Frame)             : 0.042
Stream size                    : 503 MiB (64%)
Title                          : GOPISAHI
Writing library                : x264 core 155 r2901 7d0ff22

Audio #1
Format                         : AAC
Duration                       : 1 h 40 min
Bit rate                       : 192 kb/s
Channel(s)                     : 6 channels
Channel positions              : Front: L C R, Side: L R, LFE
Sampling rate                  : 48.0 kHz
Frame rate                     : 46.875 FPS (1024 SPF)
Compression mode               : Lossy
Delay relative to video        : 1 s 117 ms
Stream size                    : 138 MiB (18%)
Title                          : GOPISAHI
Language                       : Hindi

Audio #2
Format                         : AAC
Duration                       : 1 h 40 min
Bit rate                       : 192 kb/s
Channel(s)                     : 6 channels
Channel positions              : Front: L C R, Side: L R, LFE
Sampling rate                  : 48.0 kHz
Frame rate                     : 46.875 FPS (1024 SPF)
Compression mode               : Lossy
Delay relative to video        : -26 ms
Stream size                    : 138 MiB (18%)
Title                          : GOPISAHI
Language                       : English

Text
Language                       : English

Menu
00:00:00.000                   : en:00:00:00.000
00:02:21.229                   : en:00:02:21.224
00:06:48.496                   : en:00:06:48.491
00:10:07.153                   : en:00:10:07.148
00:14:19.572                   : en:00:14:19.567
00:16:36.375                   : en:00:16:36.370
00:20:25.146                   : en:00:20:25.141
00:23:08.350                   : en:00:23:08.345
00:26:40.979                   : en:00:26:40.974
00:30:10.772                   : en:00:30:10.767
00:33:38.855                   : en:00:33:38.850
00:36:28.483                   : en:00:36:28.478
00:39:16.818                   : en:00:39:16.813
00:42:44.734                   : en:00:42:44.729
00:48:16.482                   : en:00:48:16.477
00:49:48.741                   : en:00:49:48.736
00:54:33.650                   : en:00:54:33.645
01:02:00.347                   : en:01:02:00.342
01:06:30.325                   : en:01:06:30.320
01:10:42.869                   : en:01:10:42.864
01:15:02.461                   : en:01:15:02.456
01:16:16.077                   : en:01:16:16.071
01:20:42.509                   : en:01:20:42.504
01:26:00.285                   : en:01:26:00.280
01:30:28.803                   : en:01:30:28.798
01:33:02.499                   : en:01:33:02.494
01:36:33.042                   : en:01:36:33.037






Post a Comment

0 Comments