Search

Jagga Jiunda E 2018 x264 720p Amazon Esub Punjabi GOPISAHI


Format                         : Matroska
Format version                 : Version 4 / Version 2
File size                      : 709 MiB
Duration                       : 2 h 4 min
Overall bit rate               : 797 kb/s
Movie name                     : Jagga Jiunda E 2018 GOPISAHI

Video
Format                         : AVC
Format/Info                    : Advanced Video CodecC
Duration                       : 2 h 4 min
Bit rate                       : 699 kb/s
Width                          : 1 280 pixels
Height                         : 544 pixels
Display aspect ratio           : 2.35:1
Frame rate mode                : Constant
Frame rate                     : 24.000 FPS
Color space                    : YUV
Chroma subsampling             : 4:2:0
Bit depth                      : 8 bits
Scan type                      : Progressive
Bits/(Pixel*Frame)             : 0.042
Stream size                    : 622 MiB (88%)
Title                          : GOPISAHI
Writing library                : x264 core 157 r2935 545de2f

Audio
Format                         : AAC
Duration                       : 2 h 4 min
Bit rate                       : 96.0 kb/s
Channel(s)                     : 2 channels
Channel positions              : Front: L R
Sampling rate                  : 48.0 kHz
Frame rate                     : 46.875 FPS (1024 SPF)
Compression mode               : Lossy
Delay relative to video        : -21 ms
Stream size                    : 85.3 MiB (12%)
Title                          : GOPISAHI
Language                       : Panjabi

Text
Language                       : English









Post a Comment

0 Comments