Search This Blog

Mean Girls 2 2011 x264 720p Esub BluRay Dual Audio English Hindi GOPISAHI

Format                         : Matroska
Format version                 : Version 4 / Version 2
File size                      : 620 MiB
Duration                       : 1 h 36 min
Overall bit rate               : 894 kb/s
Movie name                     : Mean Girls 2 2011 GOPISAHI

Video
Format                         : AVC
Format/Info                    : Advanced Video Codec
Codec ID                       : V_MPEG4/ISO/AVC
Duration                       : 1 h 36 min
Bit rate                       : 699 kb/s
Width                          : 1 280 pixels
Height                         : 704 pixels
Display aspect ratio           : 16:9
Frame rate mode                : Constant
Frame rate                     : 23.976 (24000/1001) FPS
Color space                    : YUV
Chroma subsampling             : 4:2:0
Bit depth                      : 8 bits
Scan type                      : Progressive
Bits/(Pixel*Frame)             : 0.032
Stream size                    : 484 MiB (78%)
Title                          : GOPISAHI
Writing library                : x264 core 155 r2901 7d0ff22

Audio #1
Format                         : AAC
Duration                       : 1 h 36 min
Bit rate                       : 96.0 kb/s
Channel(s)                     : 2 channels
Channel positions              : Front: L R
Sampling rate                  : 48.0 kHz
Frame rate                     : 46.875 FPS (1024 SPF)
Compression mode               : Lossy
Delay relative to video        : -21 ms
Stream size                    : 66.6 MiB (11%)
Title                          : GOPISAHI
Language                       : Hindi

Audio #2
Format                         : AAC
Format/Info                    : Advanced Audio Codec
Duration                       : 1 h 36 min
Bit rate                       : 96.0 kb/s
Channel(s)                     : 2 channels
Channel positions              : Front: L R
Sampling rate                  : 48.0 kHz
Frame rate                     : 46.875 FPS (1024 SPF)
Compression mode               : Lossy
Delay relative to video        : -21 ms
Stream size                    : 66.6 MiB (11%)
Title                          : GOPISAHI
Language                       : English

Text
Language                       : English

Menu
00:00:00.000                   : en:1
00:04:05.036                   : en:2
00:06:19.045                   : en:3
00:10:22.038                   : en:4
00:14:06.012                   : en:5
00:17:19.038                   : en:6
00:19:12.068                   : en:7
00:22:40.025                   : en:8
00:25:34.074                   : en:9
00:29:16.046                   : en:10
00:33:12.032                   : en:11
00:35:07.022                   : en:12
00:39:13.017                   : en:13
00:43:07.043                   : en:14
00:47:28.054                   : en:15
00:52:11.003                   : en:16
00:55:23.028                   : en:17
01:00:10.023                   : en:18
01:05:01.064                   : en:19
01:07:46.145                   : en:20
01:16:30.002                   : en:21
01:26:31.144                   : en:22










Post a Comment

0 Comments