Search

Reign Of Assassins 2010 x264 720p Esub BluRay Dual Audio Hindi Chinese GOPISAHI


Format                         : Matroska
Format version                 : Version 4 / Version 2
File size                      : 758 MiB
Duration                       : 1 h 59 min
Overall bit rate               : 885 kb/s
Movie name                     : Reign Of Assassins 2010 GOPISAHI
Video
Format                         : AVC
Format/Info                    : Advanced Video Codec
Codec ID                       : V_MPEG4/ISO/AVC
Duration                       : 1 h 59 min
Bit rate                       : 699 kb/s
Width                          : 1 280 pixels
Height                         : 544 pixels
Display aspect ratio           : 2.35:1
Frame rate mode                : Constant
Frame rate                     : 24.000 FPS
Color space                    : YUV
Chroma subsampling             : 4:2:0
Bit depth                      : 8 bits
Scan type                      : Progressive
Bits/(Pixel*Frame)             : 0.042
Stream size                    : 599 MiB (79%)
Title                          : GOPISAHI
Writing library                : x264 core 155 r2901 7d0ff22

Audio #1
Format                         : AAC
Duration                       : 1 h 59 min
Bit rate                       : 96.0 kb/s
Channel(s)                     : 2 channels
Channel positions              : Front: L R
Sampling rate                  : 48.0 kHz
Frame rate                     : 46.875 FPS (1024 SPF)
Compression mode               : Lossy
Delay relative to video        : -21 ms
Stream size                    : 82.3 MiB (11%)
Title                          : GOPISAHI
Language                       : Hindi

Audio #2
Format                         : AAC
Format/Info                    : Advanced Audio Codec
Duration                       : 1 h 59 min
Bit rate                       : 86.9 kb/s
Channel(s)                     : 2 channels
Channel positions              : Front: L R
Sampling rate                  : 48.0 kHz
Frame rate                     : 46.875 FPS (1024 SPF)
Compression mode               : Lossy
Delay relative to video        : -12 ms
Stream size                    : 74.4 MiB (10%)
Title                          : GOPISAHI
Language                       : Chinese

Text
Language                       : English

Menu
00:00:00.000                   : en:1
00:06:17.167                   : en:2
00:15:30.458                   : en:3
00:21:36.750                   : en:4
00:26:03.542                   : en:5
00:30:47.542                   : en:6
00:35:23.375                   : en:7
00:41:37.875                   : en:8
00:48:17.667                   : en:9
00:54:15.500                   : en:10
01:01:09.042                   : en:11
01:04:53.458                   : en:12
01:09:20.542                   : en:13
01:19:03.708                   : en:14
01:22:05.375                   : en:15
01:29:34.583                   : en:16
01:37:19.708                   : en:17
01:44:56.125                   : en:18
01:53:47.875                   : en:19
01:55:47.250                   : en:20





Post a Comment

0 Comments