Search

Split 2017 x264 720p Esub BluRay Dual Audio English Hindi GOPISAHI

Format                         : Matroska
Format version                 : Version 4 / Version 2
File size                      : 749 MiB
Duration                       : 1 h 57 min
Overall bit rate               : 894 kb/s
Movie name                     : Split 2017 GOPISAHI

Video
Format                         : AVC
Format/Info                    : Advanced Video Codec
Codec ID                       : V_MPEG4/ISO/AVC
Duration                       : 1 h 57 min
Bit rate                       : 699 kb/s
Width                          : 1 280 pixels
Height                         : 538 pixels
Display aspect ratio           : 2.40:1
Frame rate mode                : Constant
Frame rate                     : 23.976 (24000/1001) FPS
Color space                    : YUV
Chroma subsampling             : 4:2:0
Bit depth                      : 8 bits
Scan type                      : Progressive
Bits/(Pixel*Frame)             : 0.042
Stream size                    : 586 MiB (78%)
Title                          : GOPISAHI
Writing library                : x264 core 155 r2901 7d0ff22

Audio #1
Format                         : AAC
Format/Info                    : Advanced Audio Codec
Duration                       : 1 h 57 min
Bit rate                       : 96.0 kb/s
Channel(s)                     : 2 channels
Channel positions              : Front: L R
Sampling rate                  : 48.0 kHz
Frame rate                     : 46.875 FPS (1024 SPF)
Compression mode               : Lossy
Delay relative to video        : -21 ms
Stream size                    : 80.7 MiB (11%)
Title                          : GOPISAHI
Language                       : Hindi

Audio #2
Format                         : AAC
Duration                       : 1 h 57 min
Bit rate                       : 96.0 kb/s
Channel(s)                     : 2 channels
Channel positions              : Front: L R
Sampling rate                  : 48.0 kHz
Frame rate                     : 46.875 FPS (1024 SPF)
Compression mode               : Lossy
Delay relative to video        : -21 ms
Stream size                    : 80.6 MiB (11%)
Title                          : GOPISAHI
Language                       : English

Menu
00:00:00.000                   : en:Chapter 1
00:06:08.451                   : en:Chapter 2
00:14:19.025                   : en:Chapter 3
00:20:49.373                   : en:Chapter 4
00:24:14.536                   : en:Chapter 5
00:28:37.049                   : en:Chapter 6
00:35:47.979                   : en:Chapter 7
00:42:35.386                   : en:Chapter 8
00:49:06.068                   : en:Chapter 9
00:54:09.413                   : en:Chapter 10
01:00:24.496                   : en:Chapter 11
01:06:22.562                   : en:Chapter 12
01:12:31.222                   : en:Chapter 13
01:19:35.771                   : en:Chapter 4
01:25:25.829                   : en:Chapter 15
01:29:16.560                   : en:Chapter 16
01:34:08.226                   : en:Chapter 17
01:40:45.998                   : en:Chapter 18
01:47:40.412                   : en:Chapter 19
01:52:26.782                   : en:Chapter 20





Post a Comment

1 Comments

  1. Really thanks Bhaiiii............ aapki umr upar wala aur lambi kare i really want this movie in hindi Really thanks bhai.. Bhai Please make Unbreakable 2000 Movie in Hindi also Because iske related part 3 bhi aa raha hai..

    ReplyDelete