Search This Blog

The Ring Two 2005 x264 720p Esub Amazon 6.0 Dual Audio English Hindi GOPISAHI


Format                         : Matroska
Format version                 : Version 4 / Version 2
File size                      : 928 MiB
Duration                       : 1 h 49 min
Overall bit rate               : 1 185 kb/s
Movie name                     : The Ring Two 2005 GOPISAHI

Video
Format                         : AVC
Format/Info                    : Advanced Video Codec
Format profile                 : [email protected]
Codec ID                       : V_MPEG4/ISO/AVC
Duration                       : 1 h 49 min
Bit rate                       : 799 kb/s
Width                          : 1 280 pixels
Height                         : 720 pixels
Display aspect ratio           : 16:9
Frame rate mode                : Constant
Frame rate                     : 23.976 (24000/1001) FPS
Color space                    : YUV
Chroma subsampling             : 4:2:0
Bit depth                      : 8 bits
Scan type                      : Progressive
Bits/(Pixel*Frame)             : 0.036
Stream size                    : 625 MiB (67%)
Title                          : GOPISAHI
Writing library                : x264 core 157 r2935 545de2f

Audio #1
Format                         : AAC
Format/Info                    : Advanced Audio Codec
Duration                       : 1 h 49 min
Bit rate                       : 192 kb/s
Channel(s)                     : 6 channels
Channel positions              : Front: L C R, Side: C, Back: L R
Sampling rate                  : 48.0 kHz
Frame rate                     : 46.875 FPS (1024 SPF)
Compression mode               : Lossy
Delay relative to video        : 6 ms
Stream size                    : 150 MiB (16%)
Title                          : GOPISAHI
Language                       : Hindi

Audio #2
Format                         : AAC
Duration                       : 1 h 49 min
Bit rate                       : 192 kb/s
Channel(s)                     : 6 channels
Channel positions              : Front: L C R, Side: C, Back: L R
Sampling rate                  : 48.0 kHz
Frame rate                     : 46.875 FPS (1024 SPF)
Compression mode               : Lossy
Delay relative to video        : -21 ms
Stream size                    : 150 MiB (16%)
Title                          : GOPISAHI
Language                       : English

Text #1
ID                             : 4
Language                       : English

Text #2
ID                             : 5
Language                       : Hindi

Text #3
ID                             : 6
Language                       : Tamil

Text #4
ID                             : 7
Language                       : Telugu

Menu
00:00:00.000                   : en:Studio Logos
00:00:27.110                   : en:Jake asks Emily to watch movie, living room
00:03:27.082                   : en:Jake meets his fate, kitchen & living room
00:07:03.006                   : en:Rachel & Aidan move to a new town, home
00:08:06.194                   : en:Rachel & Aidan talk about their new life, kitchen
00:10:38.054                   : en:Max questions Rachel's methods, newspaper office
00:12:04.224                   : en:Rachel hears news of homicide, newspaper office
00:12:45.181                   : en:Rachel sees Jake's deformed body, crime scene
00:15:53.035                   : en:Rachel tries to talk to Emily, police station
00:17:40.101                   : en:Rachel finds the tape, Jake's house & woods
00:20:43.033                   : en:Aidan has a nightmare, living room & bedroom
00:24:07.029                   : en:Aidan is in a trance, school
00:25:13.053                   : en:Rachel & Aidan go to fair, fair
00:27:28.021                   : en:Aidan sees strange things, fair
00:30:16.148                   : en:Rachel finds Aidan, bathroom
00:31:01.068                   : en:Deer attack Rachel's car, road
00:34:16.012                   : en:Tree reappears on the wall, home
00:37:32.208                   : en:Samara listens & Rachel asks Max for help, newspaper office
00:40:05.111                   : en:Rachel tends to Aidan, Max's house
00:41:08.049                   : en:Rachel puts Aidan in the bath, bathroom
00:42:40.224                   : en:Rachel looks at Aidan's camera, bedroom
00:44:07.270                   : en:Aidan is possessed, bathroom
00:47:39.106                   : en:Aidan questions Rachel, bathroom
00:48:52.096                   : en:Aidan is hospitalized & Rachel tells the story, hospital
00:52:15.174                   : en:Aidan communicates with Rachel, hospital room
00:53:35.170                   : en:Dr Temple asks Rachel to leave, hospital room
00:56:22.004                   : en:Rachel digs into Samara's history, adoption center
00:57:23.231                   : en:Rachel goes back to the Morgan house, Morgan house
00:58:36.054                   : en:Rachel meets Martin, Morgan house
01:00:35.090                   : en:Rachel looks around in the basement, basement
01:03:09.244                   : en:Rachel finds Samara's book, basement & hospital room
01:04:31.201                   : en:Aidan wants to go home, hospital
01:08:41.034                   : en:Evelyn tells her story, women's shelter
01:11:25.114                   : en:Rachel's arrival is expected, mental institution
01:12:48.114                   : en:Evelyn gives Rachel advice, mental institution
01:16:28.000                   : en:Max talks with Aidan, house
01:19:45.114                   : en:Aidan is happy to see Mommy, house
01:21:44.024                   : en:Rachel makes a grim discovery, truck
01:24:00.327                   : en:Rachel has a dream & Aidan won't sleep, their home
01:26:29.101                   : en:Rachel makes a sandwich for Aidan, kitchen & living room
01:28:38.146                   : en:Rachel prepares bath, house
01:29:37.080                   : en:Rachel exorcises Aidan & revives him, bathroom
01:33:11.044                   : en:Rachel sacrifices herself, living room & Samara's world
01:34:50.059                   : en:Rachel decides to take action, well
01:38:55.221                   : en:Rachel follows Aidan's voice, cliff
01:41:08.020                   : en:Rachel & Aidan reunite, their home
01:43:06.097                   : en:End Credits








Post a Comment

0 Comments