Search

The Wedding Party 1969 x264 720p Esub BluRay Dual Audio English Hindi GOPISAHI


Format                         : Matroska
Format version                 : Version 4 / Version 2
File size                      : 522 MiB
Duration                       : 1 h 31 min
Overall bit rate               : 794 kb/s
Movie name                     : The Wedding Party 1969 GOPISAHI

Video
Format                         : AVC
Codec ID                       : V_MPEG4/ISO/AVC
Duration                       : 1 h 31 min
Bit rate                       : 599 kb/s
Width                          : 960 pixels
Height                         : 720 pixels
Display aspect ratio           : 4:3
Frame rate mode                : Constant
Frame rate                     : 23.976 (24000/1001) FPS
Color space                    : YUV
Chroma subsampling             : 4:2:0
Bit depth                      : 8 bits
Scan type                      : Progressive
Bits/(Pixel*Frame)             : 0.036
Stream size                    : 393 MiB (75%)
Title                          : GOPISAHI
Writing library                : x264 core 157 r2935 545de2f

Audio #1
Format                         : AAC
Duration                       : 1 h 31 min
Bit rate                       : 96.0 kb/s
Channel(s)                     : 2 channels
Channel positions              : Front: L R
Sampling rate                  : 48.0 kHz
Frame rate                     : 46.875 FPS (1024 SPF)
Compression mode               : Lossy
Delay relative to video        : -21 ms
Stream size                    : 63.2 MiB (12%)
Title                          : GOPISAHI
Language                       : Hindi

Audio #2
Format                         : AAC
Duration                       : 1 h 31 min
Bit rate                       : 96.0 kb/s
Channel(s)                     : 1 channel
Channel positions              : Front: C
Sampling rate                  : 48.0 kHz
Frame rate                     : 46.875 FPS (1024 SPF)
Compression mode               : Lossy
Stream size                    : 63.3 MiB (12%)
Title                          : GOPISAHI
Language                       : English

Text
Language                       : English

Menu
00:00:00.000                   : en:Chapter 1
00:09:31.988                   : en:Chapter 2
00:14:52.183                   : en:Chapter 3
00:22:30.391                   : en:Chapter 4
00:30:16.815                   : en:Chapter 5
00:38:10.413                   : en:Chapter 6
00:45:39.695                   : en:Chapter 7
00:53:49.768                   : en:Chapter 8
00:58:59.953                   : en:Chapter 9
01:04:37.415                   : en:Chapter 10
01:16:26.999                   : en:Chapter 11
01:22:57.514                   : en:Chapter 12





Post a Comment

0 Comments