Search

Thugs Of Hindostan 2018 x264 720p Esub BluRay Dual Audio Telugu Tamil Hindi GOPISAHI


General
Unique ID                      : 4757476969180756519921146455643696437 (0x39441B96A65DC1822E8B26052FCAD35)
Complete name                  : G:\Thugs Of Hindostan 2018 x264 720p Esub BluRay Dual Audio Telugu Tamil Hindi GOPISAHI.mkv
Format                         : Matroska
Format version                 : Version 4 / Version 2
File size                      : 1.18 GiB
Duration                       : 2 h 44 min
Overall bit rate               : 1 030 kb/s
Movie name                     : Thugs Of Hindostan 2018 GOPISAHI
Encoded date                   : UTC 2019-01-14 07:51:04
Writing application            : mkvmerge v19.0.0 ('Brave Captain') 32-bit
Writing library                : libebml v1.3.5 + libmatroska v1.4.8

Video
ID                             : 1
Format                         : AVC
Format/Info                    : Advanced Video Codec
Format profile                 : [email protected]
Format settings                : CABAC / 16 Ref Frames
Format settings, CABAC         : Yes
Format settings, ReFrames      : 16 frames
Codec ID                       : V_MPEG4/ISO/AVC
Duration                       : 2 h 44 min
Bit rate                       : 699 kb/s
Width                          : 1 280 pixels
Height                         : 544 pixels
Display aspect ratio           : 2.35:1
Frame rate mode                : Constant
Frame rate                     : 24.000 FPS
Color space                    : YUV
Chroma subsampling             : 4:2:0
Bit depth                      : 8 bits
Scan type                      : Progressive
Bits/(Pixel*Frame)             : 0.042
Stream size                    : 823 MiB (68%)
Title                          : GOPISAHI
Writing library                : x264 core 157 r2935 545de2f
Encoding settings              : cabac=1 / ref=16 / deblock=1:-1:-1 / analyse=0x3:0x133 / me=umh / subme=10 / psy=1 / psy_rd=1.00:0.15 / mixed_ref=1 / me_range=24 / chroma_me=1 / trellis=2 / 8x8dct=1 / cqm=0 / deadzone=21,11 / fast_pskip=1 / chroma_qp_offset=-3 / threads=12 / lookahead_threads=2 / sliced_threads=0 / nr=0 / decimate=1 / interlaced=0 / bluray_compat=0 / constrained_intra=0 / bframes=8 / b_pyramid=2 / b_adapt=2 / b_bias=0 / direct=3 / weightb=1 / open_gop=0 / weightp=2 / keyint=240 / keyint_min=24 / scenecut=40 / intra_refresh=0 / rc_lookahead=60 / rc=2pass / mbtree=1 / bitrate=699 / ratetol=1.0 / qcomp=0.60 / qpmin=0 / qpmax=69 / qpstep=4 / cplxblur=20.0 / qblur=0.5 / vbv_maxrate=300000 / vbv_bufsize=300000 / nal_hrd=none / filler=0 / ip_ratio=1.40 / aq=1:1.00
Default                        : Yes
Forced                         : No
Color range                    : Limited
Color primaries                : BT.709
Transfer characteristics       : BT.709
Matrix coefficients            : BT.709

Audio #1
ID                             : 2
Format                         : AAC
Format/Info                    : Advanced Audio Codec
Format profile                 : LC
Codec ID                       : A_AAC-2
Duration                       : 2 h 44 min
Bit rate                       : 96.0 kb/s
Channel(s)                     : 2 channels
Channel positions              : Front: L R
Sampling rate                  : 48.0 kHz
Frame rate                     : 46.875 FPS (1024 SPF)
Compression mode               : Lossy
Delay relative to video        : -21 ms
Stream size                    : 113 MiB (9%)
Title                          : GOPISAHI
Language                       : Hindi
Default                        : No
Forced                         : No

Audio #2
ID                             : 3
Format                         : AAC
Format/Info                    : Advanced Audio Codec
Format profile                 : LC
Codec ID                       : A_AAC-2
Duration                       : 2 h 44 min
Bit rate                       : 96.0 kb/s
Channel(s)                     : 2 channels
Channel positions              : Front: L R
Sampling rate                  : 48.0 kHz
Frame rate                     : 46.875 FPS (1024 SPF)
Compression mode               : Lossy
Delay relative to video        : -21 ms
Stream size                    : 113 MiB (9%)
Title                          : GOPISAHI
Default                        : Yes
Forced                         : No

Audio #3
ID                             : 4
Format                         : AAC
Format/Info                    : Advanced Audio Codec
Format profile                 : LC
Codec ID                       : A_AAC-2
Duration                       : 2 h 44 min
Bit rate                       : 96.0 kb/s
Channel(s)                     : 2 channels
Channel positions              : Front: L R
Sampling rate                  : 48.0 kHz
Frame rate                     : 46.875 FPS (1024 SPF)
Compression mode               : Lossy
Delay relative to video        : -21 ms
Stream size                    : 113 MiB (9%)
Title                          : GOPISAHI
Default                        : No
Forced                         : No

Text #1
ID                             : 5
Format                         : PGS
Muxing mode                    : zlib
Codec ID                       : S_HDMV/PGS
Codec ID/Info                  : Picture based subtitle format used on BDs/HD-DVDs
Duration                       : 2 h 37 min
Bit rate                       : 18.8 kb/s
Count of elements              : 2554
Stream size                    : 21.1 MiB (2%)
Title                          : GOPISAHI
Language                       : English
Default                        : Yes
Forced                         : No

Text #2
ID                             : 6
Format                         : PGS
Muxing mode                    : zlib
Codec ID                       : S_HDMV/PGS
Codec ID/Info                  : Picture based subtitle format used on BDs/HD-DVDs
Duration                       : 2 h 37 min
Bit rate                       : 12.6 kb/s
Count of elements              : 2570
Stream size                    : 14.1 MiB (1%)
Title                          : GOPISAHI
Language                       : Arabic
Default                        : No
Forced                         : No

Text #3
ID                             : 7
Format                         : PGS
Muxing mode                    : zlib
Codec ID                       : S_HDMV/PGS
Codec ID/Info                  : Picture based subtitle format used on BDs/HD-DVDs
Duration                       : 2 h 37 min
Bit rate                       : 19.8 kb/s
Count of elements              : 2566
Stream size                    : 22.2 MiB (2%)
Title                          : GOPISAHI
Language                       : French
Default                        : No
Forced                         : No

Text #4
ID                             : 8
Format                         : PGS
Muxing mode                    : zlib
Codec ID                       : S_HDMV/PGS
Codec ID/Info                  : Picture based subtitle format used on BDs/HD-DVDs
Duration                       : 2 h 37 min
Bit rate                       : 20.7 kb/s
Count of elements              : 2566
Stream size                    : 23.3 MiB (2%)
Title                          : GOPISAHI
Language                       : Spanish
Default                        : No
Forced                         : No

Text #5
ID                             : 9
Format                         : PGS
Muxing mode                    : zlib
Codec ID                       : S_HDMV/PGS
Codec ID/Info                  : Picture based subtitle format used on BDs/HD-DVDs
Duration                       : 2 h 37 min
Bit rate                       : 20.7 kb/s
Count of elements              : 2566
Stream size                    : 23.3 MiB (2%)
Title                          : GOPISAHI
Language                       : German

Menu #1
00:00:00.000                   : en:00:00:00.000
00:00:10.042                   : en:00:00:10.042
00:00:42.250                   : en:00:00:42.250
00:05:10.667                   : en:00:05:10.625
00:16:17.042                   : en:00:16:17.000
00:24:29.417                   : en:00:24:29.417
00:32:58.042                   : en:00:32:58.000
00:36:34.750                   : en:00:36:34.750
00:41:24.042                   : en:00:41:24.000
00:43:40.458                   : en:00:43:40.417
00:49:56.458                   : en:00:49:56.417
00:56:33.458                   : en:00:56:33.417
01:03:03.042                   : en:01:03:03.000
01:12:10.000                   : en:01:12:10.000
01:16:44.417                   : en:01:16:44.417
01:20:59.250                   : en:01:20:59.208
01:30:41.625                   : en:01:30:41.625
01:38:38.583                   : en:01:38:38.542
01:46:14.750                   : en:01:46:14.625
01:54:52.250                   : en:01:54:52.208
02:01:31.292                   : en:02:01:31.250
02:06:24.000                   : en:02:06:24.000
02:12:39.875                   : en:02:12:39.833
02:20:30.000                   : en:02:20:30.000
02:31:30.000                   : en:02:31:30.000
02:37:56.417                   : en:02:37:56.417

Menu #2
00:00:00.000                   : en:00:00:00.000
00:00:10.042                   : en:00:00:10.042
00:00:42.250                   : en:00:00:42.250
00:05:10.625                   : en:00:05:10.625
00:16:17.000                   : en:00:16:17.000
00:24:29.417                   : en:00:24:29.417
00:32:58.000                   : en:00:32:58.000
00:36:34.750                   : en:00:36:34.750
00:41:24.000                   : en:00:41:24.000
00:43:40.417                   : en:00:43:40.417
00:49:56.417                   : en:00:49:56.417
00:56:33.417                   : en:00:56:33.417
01:03:03.000                   : en:01:03:03.000
01:12:10.000                   : en:01:12:10.000
01:16:44.417                   : en:01:16:44.417
01:20:59.208                   : en:01:20:59.208
01:30:41.625                   : en:01:30:41.625
01:38:38.542                   : en:01:38:38.542
01:46:14.625                   : en:01:46:14.625
01:54:52.208                   : en:01:54:52.208
02:01:31.250                   : en:02:01:31.250
02:06:24.000                   : en:02:06:24.000
02:12:39.833                   : en:02:12:39.833
02:20:30.000                   : en:02:20:30.000
02:31:30.000                   : en:02:31:30.000
02:37:56.417                   : en:02:37:56.417












Post a Comment

0 Comments