Search

2012 2009 x264 720p Esub BluRay 6.0 Dual Audio English Hindi GOPISAHI


CODER GD @ GOPISAHI

[url=https://www.gopisahi.pw/]https://www.gopisahi.pw/[/url]

Format                         : Matroska
Format version                 : Version 4 / Version 2
File size                      : 1.45 GiB
Duration                       : 2 h 37 min
Overall bit rate               : 1 315 kb/s
Movie name                     : 2012 2009 GOPISAHI

Video
Format                         : AVC
Format/Info                    : Advanced Video Codec
Codec ID                       : V_MPEG4/ISO/AVC
Duration                       : 2 h 37 min
Bit rate                       : 899 kb/s
Width                          : 1 280 pixels
Height                         : 528 pixels
Display aspect ratio           : 2.40:1
Frame rate mode                : Constant
Frame rate                     : 23.976 (24000/1001) FPS
Color space                    : YUV
Chroma subsampling             : 4:2:0
Bit depth                      : 8 bits
Scan type                      : Progressive
Bits/(Pixel*Frame)             : 0.055
Stream size                    : 1 014 MiB (68%)
Title                          : GOPISAHI
Writing library                : x264 core 157 r2935 545de2f

Audio #1
Format                         : AAC
Duration                       : 2 h 37 min
Bit rate                       : 192 kb/s
Channel(s)                     : 6 channels
Channel positions              : Front: L C R, Side: C, Back: L R
Sampling rate                  : 48.0 kHz
Frame rate                     : 46.875 FPS (1024 SPF)
Compression mode               : Lossy
Delay relative to video        : -21 ms
Stream size                    : 217 MiB (15%)
Title                          : GOPISAHI
Language                       : Hindi

Audio #2
Format                         : AAC
Duration                       : 2 h 37 min
Bit rate                       : 192 kb/s
Channel(s)                     : 6 channels
Channel positions              : Front: L C R, Side: C, Back: L R
Sampling rate                  : 48.0 kHz
Frame rate                     : 46.875 FPS (1024 SPF)
Compression mode               : Lossy
Delay relative to video        : -21 ms
Stream size                    : 217 MiB (15%)
Title                          : GOPISAHI
Language                       : English

Text #1
Format                         : PGS
Stream size                    : 33.9 MiB (2%)
Title                          : GOPISAHI
Language                       : Hindi

Text #2
Format                         : PGS
Stream size                    : 37.5 MiB (3%)
Title                          : GOPISAHI
Language                       : English

Text #3
Format                         : PGS
Muxing mode                    : zlib
Codec ID                       : S_HDMV/PGS
Codec ID/Info                  : Picture based subtitle format used on BDs/HD-DVDs
Title                          : GOPISAHI
Language                       : Tamil

Text #4
Format                         : PGS
Muxing mode                    : zlib
Codec ID                       : S_HDMV/PGS
Codec ID/Info                  : Picture based subtitle format used on BDs/HD-DVDs
Title                          : GOPISAHI
Language                       : Telugu

Menu
00:00:00.000                   : en:Chapter 1
00:11:54.923                   : en:Chapter 2
00:21:58.234                   : en:Chapter 3
00:28:47.601                   : en:Chapter 4
00:34:38.076                   : en:Chapter 5
00:44:48.144                   : en:Chapter 6
00:55:26.657                   : en:Chapter 7
01:05:09.572                   : en:Chapter 8
01:16:25.289                   : en:Chapter 9
01:25:02.514                   : en:Chapter 10
01:36:35.331                   : en:Chapter 11
01:46:47.234                   : en:Chapter 12
01:56:49.794                   : en:Chapter 13
02:04:53.152                   : en:Chapter 14
02:16:40.067                   : en:Chapter 15
02:23:21.927                   : en:Chapter 16






Post a Comment

1 Comments