Search

Bohemian Rhapsody 2018 x264 720p Esub BluRay Dual Audio English Hindi GOPISAHI

 Format                         : Matroska
Format version                 : Version 4 / Version 2
File size                      : 977 MiB
Duration                       : 2 h 14 min
Overall bit rate               : 1 015 kb/s
Movie name                     : Bohemian Rhapsody 2018 GOPISAHI

Video
Format                         : AVC
Format/Info                    : Advanced Video Codec
Codec ID                       : V_MPEG4/ISO/AVC
Duration                       : 2 h 14 min
Bit rate                       : 699 kb/s
Width                          : 1 264 pixels
Height                         : 528 pixels
Display aspect ratio           : 2.40:1
Frame rate mode                : Constant
Frame rate                     : 23.976 (24000/1001) FPS
Color space                    : YUV
Chroma subsampling             : 4:2:0
Bit depth                      : 8 bits
Scan type                      : Progressive
Bits/(Pixel*Frame)             : 0.044
Stream size                    : 673 MiB (69%)
Title                          : GOPISAHI
Writing library                : x264 core 157 r2935 545de2f

Audio #1
Format                         : AAC
Duration                       : 2 h 14 min
Bit rate                       : 192 kb/s
Channel(s)                     : 6 channels
Channel positions              : Front: L C R, Side: C, Back: L R
Sampling rate                  : 48.0 kHz
Frame rate                     : 46.875 FPS (1024 SPF)
Compression mode               : Lossy
Delay relative to video        : -21 ms
Stream size                    : 185 MiB (19%)
Title                          : GOPISAHI
Language                       : Hindi

Audio #2
Format                         : AAC
Duration                       : 2 h 14 min
Bit rate                       : 96.0 kb/s
Channel(s)                     : 2 channels
Channel positions              : Front: L R
Sampling rate                  : 48.0 kHz
Frame rate                     : 46.875 FPS (1024 SPF)
Compression mode               : Lossy
Delay relative to video        : -12 ms
Stream size                    : 92.8 MiB (10%)
Title                          : GOPISAHI
Language                       : English

Text #1
Format                         : UTF-8
Language                       : English

Text #2
Format                         : PGS
Muxing mode                    : zlib
Codec ID                       : S_HDMV/PGS
Codec ID/Info                  : Picture based subtitle format used on BDs/HD-DVDs
Duration                       : 2 h 11 min
Language                       : English

Text #3
Format                         : PGS
Muxing mode                    : zlib
Codec ID                       : S_HDMV/PGS
Language                       : Hindi

Menu #1
00:00:00.000                   : en:00:00:00.000
00:03:48.729                   : en:00:03:48.728
00:07:45.465                   : en:00:07:45.465
00:11:16.593                   : en:00:11:16.593
00:17:41.811                   : en:00:17:41.811
00:21:03.179                   : en:00:21:03.179
00:27:24.184                   : en:00:27:24.184
00:33:34.846                   : en:00:33:34.846
00:37:22.282                   : en:00:37:22.282
00:45:24.013                   : en:00:45:24.013
00:52:19.595                   : en:00:52:19.595
00:56:57.205                   : en:00:56:57.205
01:03:11.413                   : en:01:03:11.413
01:10:44.991                   : en:01:10:44.991
01:15:25.896                   : en:01:15:25.730
01:21:45.901                   : en:01:21:45.901
01:26:59.172                   : en:01:26:59.172
01:32:18.199                   : en:01:32:18.199
01:36:43.923                   : en:01:36:43.923
01:43:25.574                   : en:01:43:25.574
01:50:23.283                   : en:01:50:23.283
01:54:23.065                   : en:01:54:22.898
02:00:41.109                   : en:02:00:41.109
02:07:53.332                   : en:02:07:53.332

Menu #2
00:00:00.000                   : en:00:00:00.000
00:03:48.728                   : en:00:03:48.728
00:07:45.465                   : en:00:07:45.465
00:11:16.593                   : en:00:11:16.593
00:17:41.811                   : en:00:17:41.811
00:21:03.179                   : en:00:21:03.179
00:27:24.184                   : en:00:27:24.184
00:33:34.846                   : en:00:33:34.846
00:37:22.282                   : en:00:37:22.282
00:45:24.013                   : en:00:45:24.013
00:52:19.595                   : en:00:52:19.595
00:56:57.205                   : en:00:56:57.205
01:03:11.413                   : en:01:03:11.413
01:10:44.991                   : en:01:10:44.991
01:15:25.730                   : en:01:15:25.730
01:21:45.901                   : en:01:21:45.901
01:26:59.172                   : en:01:26:59.172
01:32:18.199                   : en:01:32:18.199
01:36:43.923                   : en:01:36:43.923
01:43:25.574                   : en:01:43:25.574
01:50:23.283                   : en:01:50:23.283
01:54:22.898                   : en:01:54:22.898
02:00:41.109                   : en:02:00:41.109
02:07:53.332                   : en:02:07:53.332








Post a Comment

0 Comments