Search This Blog

Hook 1991 x264 720p Esub BluRay Dual Audio English Hindi GOPISAHI

Format                         : Matroska
Format version                 : Version 4 / Version 2
File size                      : 1.01 GiB
Duration                       : 2 h 21 min
Overall bit rate               : 1 021 kb/s
Movie name                     : Hook 1991 GOPISAHI

Video
Format                         : AVC
Codec ID                       : V_MPEG4/ISO/AVC
Duration                       : 2 h 21 min
Bit rate                       : 699 kb/s
Width                          : 1 280 pixels
Height                         : 528 pixels
Display aspect ratio           : 2.40:1
Frame rate mode                : Constant
Frame rate                     : 23.976 (24000/1001) FPS
Color space                    : YUV
Chroma subsampling             : 4:2:0
Bit depth                      : 8 bits
Scan type                      : Progressive
Bits/(Pixel*Frame)             : 0.043
Stream size                    : 708 MiB (68%)
Title                          : GOPISAHI
Writing library                : x264 core 157 r2935 545de2f

Audio #1
Format                         : AAC
Duration                       : 2 h 21 min
Bit rate                       : 96.0 kb/s
Channel(s)                     : 2 channels
Channel positions              : Front: L R
Sampling rate                  : 48.0 kHz
Frame rate                     : 46.875 FPS (1024 SPF)
Compression mode               : Lossy
Delay relative to video        : -21 ms
Stream size                    : 97.7 MiB (9%)
Title                          : GOPISAHI
Language                       : Hindi

Audio #2
Format                         : AAC
Duration                       : 2 h 21 min
Bit rate                       : 192 kb/s
Channel(s)                     : 6 channels
Channel positions              : Front: L C R, Side: C, Back: L R
Sampling rate                  : 48.0 kHz
Frame rate                     : 46.875 FPS (1024 SPF)
Compression mode               : Lossy
Delay relative to video        : -21 ms
Stream size                    : 195 MiB (19%)
Title                          : GOPISAHI
Language                       : English

Text #1
Format                         : PGS
Codec ID                       : S_HDMV/PGS
Codec ID/Info                  : Picture based subtitle format used on BDs/HD-DVDs
Duration                       : 2 h 14 min
Bit rate                       : 24.7 kb/s
Count of elements              : 2980
Stream size                    : 23.8 MiB (2%)
Title                          : GOPISAHI
Language                       : Hindi

Text #2
Format                         : PGS
Codec ID                       : S_HDMV/PGS
Codec ID/Info                  : Picture based subtitle format used on BDs/HD-DVDs
Duration                       : 2 h 14 min
Bit rate                       : 28.1 kb/s
Count of elements              : 3090
Stream size                    : 27.0 MiB (3%)
Title                          : GOPISAHI
Language                       : English

Text #3
Format                         : PGS
Muxing mode                    : zlib
Codec ID                       : S_HDMV/PGS
Codec ID/Info                  : Picture based subtitle format used on BDs/HD-DVDs
Duration                       : 2 h 18 min
Bit rate                       : 21.4 kb/s
Language                       : English

Menu
00:00:00.000                   : en:Start
00:08:05.944                   : en:Granny Wendy
00:16:44.378                   : en:True Origins
00:23:37.625                   : en:"My God, the Children!"
00:30:14.396                   : en:"He's Come Back"
00:35:50.357                   : en:Tinkerbell
00:48:17.603                   : en:Pirate Town
00:58:14.199                   : en:Capt. James Hook
01:06:16.973                   : en:Cutting a Deal
01:11:26.532                   : en:The Lost Boys
01:22:03.544                   : en:"Oh, There You Are"
01:31:46.084                   : en:Ruminations & Plan
01:40:26.187                   : en:In Training
01:47:53.634                   : en:Lesson One
01:56:30.025                   : en:Feast for Imagination
02:08:10.057                   : en:"When You're Alone"





Post a Comment

0 Comments